Code:Breaker | Code:Realize - Sousei no Himegimi | Comet Lucifer

Скачать через торрент Каникулы президента Фильм бесплатно в хорошем качестве torrent

Скачивайте на UnionPeer.org фильмы через торрент без регистрации. Новинки кино в хорошем качестве через торрент. На UnionPeer.org можно скачать через торрент фильмы 2014 и 2015 годов. Самые новые фильмы.

Скачать торрент Каникулы президента бесплатно через .torrent фильм мультфильм сериал

Статистика раздачи
Размер:  743 MB   |    Зарегистрирован:  1 месяц 24 дня   |    .torrent скачан:  65 раз   |   
Раздают:  1  
   
загрузка...
 
Автор Сообщение

Galfimbul

avatar Galfimbul


Каникулы президента

Страна: Россия
Жанр: комедия
Год выпуска: 2018
Продолжительность: 01:38:47
Субтитры: нет
Режиссер: Илья Шерстобитов
В ролях: Дмитрий Грачев, Анна Цуканова-Котт, Настасья Самбурская, Евгений Сидихин, Кирилл Васильев, Гоша Куценко, Дмитрий Дибров, Роза Хаируллина, Роман Попов, Владимир Носик, Олег Васильков
Описание: Устав от рутины, Президент решает отправиться на каникулы в гордом одиночестве, чтобы отдохнуть в Крыму, а заодно свободно пообщаться с народом. Понимая, что остаться инкогнито и улизнуть от заботливых коллег будет сложно, он прибегает к услугам гримера. Но его новый облик точь-в-точь совпадает с наружностью Валерия из N-ска, который скрывается от коллекторов по путевке матери в крымском санатории…
Качество видео: WEB-DLRip
Формат видео: AVI

Видео: 688x288 (2.39:1), 23.976 fps, XviD build 73 ~914 kbps avg, 0.19 bit/pixel
Аудио: 48 kHz, MPEG Layer 3, 2 ch, ~128.00 kbps avg
Сэмпл
Format                      : AVI
Format/Info                 : Audio Video Interleave
File size                   : 743 MiB
Duration                    : 1 h 38 min
Overall bit rate            : 1 052 kb/s
Writing application         : VirtualDubMod 1.5.10.3 | www.virtualdub-fr.org || (build 2550/release)
Writing library             : VirtualDubMod build 2550/release

Video
ID                          : 0
Format                      : MPEG-4 Visual
Format profile              : Advanced [email protected]
Format settings             : BVOP1
Format settings, BVOP       : 1
Format settings, QPel       : No
Format settings, GMC        : No warppoints
Format settings, Matrix     : Default (H.263)
Codec ID                    : XVID
Codec ID/Hint               : XviD
Duration                    : 1 h 38 min
Bit rate                    : 914 kb/s
Width                       : 688 pixels
Height                      : 288 pixels
Display aspect ratio        : 2.40:1
Frame rate                  : 23.976 (24000/1001) FPS
Color space                 : YUV
Chroma subsampling          : 4:2:0
Bit depth                   : 8 bits
Scan type                   : Progressive
Compression mode            : Lossy
Bits/(Pixel*Frame)          : 0.192
Stream size                 : 646 MiB (87%)
Writing library             : XviD 73

Audio
ID                          : 1
Format                      : MPEG Audio
Format version              : Version 1
Format profile              : Layer 3
Codec ID                    : 55
Codec ID/Hint               : MP3
Duration                    : 1 h 38 min
Bit rate mode               : Constant
Bit rate                    : 128 kb/s
Channel(s)                  : 2 channels
Sampling rate               : 48.0 kHz
Frame rate                  : 41.667 FPS (1152 SPF)
Compression mode            : Lossy
Stream size                 : 90.4 MiB (12%)
Alignment                   : Aligned on interleaves
Interleave, duration        : 42  ms (1.00 video frame)
Interleave, preload duratio : 504  ms
Writing library             : LAME3.99r
Encoding settings           : -m s -V 4 -q 2 -lowpass 17 -b 128


Трекер:  [ 30-Апр-2018 08:24 ]

  

Скачать .torrent

Размер .torrent файла 15 KB


Размер: 743 MB
Хэш (hash) релиза: bba1fa817578c0ebbbf4b0f2524760dd9d906598
Подписка на обновления:

Еще никто не оставлял запись к записи скачать торрент Каникулы президента . Будь первым!

!Обратная связь