Delicious Library 3.7.2 | Nightcap | IMDb: 8.2 S3E24 Castle - Season 3

Скачать через торрент Каникулы президента Фильм бесплатно в хорошем качестве torrent

Скачивайте на UnionPeer.org фильмы через торрент без регистрации. Новинки кино в хорошем качестве через торрент. На UnionPeer.org можно скачать через торрент фильмы 2014 и 2015 годов. Самые новые фильмы.

Скачать торрент Каникулы президента бесплатно через .torrent фильм мультфильм сериал

Статистика раздачи
Размер:  1.46 GB   |    Зарегистрирован:  1 месяц 24 дня   |    .torrent скачан:  278 раз   |   
Раздают:  1  
   
загрузка...
 
Автор Сообщение

Galfimbul

avatar Galfimbul


Каникулы президента

Жанр: комедия
Год выпуска: 2018
Продолжительность: 01:38:47

Режиссёр: Илья Шерстобитов

В ролях: Дмитрий Грачев, Анна Цуканова-Котт, Настасья Самбурская, Евгений Сидихин, Кирилл Васильев, Гоша Куценко, Дмитрий Дибров, Роза Хаируллина, Роман Попов, Владимир Носик, Олег Васильков
Описание: Устав от рутины, Президент решает отправиться на каникулы в гордом одиночестве, чтобы отдохнуть в Крыму, а заодно свободно пообщаться с народом. Понимая, что остаться инкогнито и улизнуть от заботливых коллег будет сложно, он прибегает к услугам гримера. Но его новый облик точь-в-точь совпадает с наружностью Валерия из N-ска, который скрывается от коллекторов по путевке матери в крымском санатории…

Кинопоиск
Sample

Качество видео: WEB-DLRip
Формат видео: AVI

Видео: 720x304 (2.35:1), 23.976 fps, XviD, ~1719 kbps avg, 0.32 bit/pixel
Аудио: 48 kHz, AC3 Dolby Digital, 3/2 (L,C,R,l,r) + LFE ch, ~384 kbps
General
Complete name : D:\Каникулы президента 2018 WEB-DLRip.avi
Format : AVI
Format/Info : Audio Video Interleave
File size : 1.46 GiB
Duration : 1h 38mn
Overall bit rate : 2 112 Kbps
Writing application : VirtualDubMod 1.5.10.3 | www.virtualdub-fr.org || (build 2550/release)
Writing library : VirtualDubMod build 2550/release

Video
ID : 0
Format : MPEG-4 Visual
Format profile : Advanced [email protected]
Format settings, BVOP : 2
Format settings, QPel : No
Format settings, GMC : No warppoints
Format settings, Matrix : Default (MPEG)
Codec ID : XVID
Codec ID/Hint : XviD
Duration : 1h 38mn
Bit rate : 1 719 Kbps
Width : 720 pixels
Height : 304 pixels
Display aspect ratio : 2.35:1
Frame rate : 23.976 fps
Color space : YUV
Chroma subsampling : 4:2:0
Bit depth : 8 bits
Scan type : Progressive
Compression mode : Lossy
Bits/(Pixel*Frame) : 0.328
Stream size : 1.19 GiB (81%)
Writing library : XviD 1.2.1 (UTC 2008-12-04)

Audio
ID : 1
Format : AC-3
Format/Info : Audio Coding 3
Mode extension : CM (complete main)
Format settings, Endianness : Big
Codec ID : 2000
Duration : 1h 38mn
Bit rate mode : Constant
Bit rate : 384 Kbps
Channel count : 6 channels
Channel positions : Front: L C R, Side: L R, LFE
Sampling rate : 48.0 KHz
Bit depth : 16 bits
Compression mode : Lossy
Stream size : 271 MiB (18%)
Alignment : Split accross interleaves
Interleave, duration : 42 ms (1.00 video frame)
Interleave, preload duration : 500 ms


Трекер:  [ 30-Апр-2018 02:54 ]

  

Скачать .torrent

Размер .torrent файла 15 KB


Размер: 1.46 GB
Хэш (hash) релиза: 13af4ec55903ea0af1f837913a3f6b7c36d5817e
Подписка на обновления:

Еще никто не оставлял запись к записи скачать торрент Каникулы президента . Будь первым!

!Обратная связь