Matériel | Matériel pour apiculture | Matériel, Systèmes d'exploitation et Réseaux

Скачать через торрент Я худею Фильм бесплатно в хорошем качестве torrent

Скачивайте на UnionPeer.org фильмы через торрент без регистрации. Новинки кино в хорошем качестве через торрент. На UnionPeer.org можно скачать через торрент фильмы 2014 и 2015 годов. Самые новые фильмы.

Скачать торрент Я худею бесплатно через .torrent фильм мультфильм сериал

Статистика раздачи
Размер:  744 MB   |    Зарегистрирован:  1 месяц 25 дней   |    .torrent скачан:  101 раз   |   
Раздают:  1  
   
загрузка...
 
Автор Сообщение

Galfimbul

avatar Galfimbul


Я худею

Страна: Россия
Жанр: комедия
Год выпуска: 2018
Продолжительность: 01:38:23
Субтитры: нет
Режиссер:
Алексей Нужный
В ролях:
Александра Бортич, Ирина Горбачева, Сергей Шнуров, Евгений Кулик, Роман Курцын, Александр Пташенчук, Елена Валюшкина, Валерия Дергилева, Андрей Трушин, Олег Кассин
Описание:
В жизни Ани есть две главные любви — её парень Женя и еда. Из-за еды они и расстаются: Жене совсем не нравится, как Аня стала выглядеть. Аня не готова просто сдаться. При поддержке лучшей подруги и увлечённого здоровым образом жизни добряка Коли она пускается в увлекательное приключение, чтобы похудеть и обрести любовь и счастье.
Качество видео: WEB-DLRip
Формат видео: AVI

Видео: 688x288 (2.39:1), 25 fps, XviD build 73 ~919 kbps avg, 0.19 bit/pixel
Аудио: 48 kHz, MPEG Layer 3, 2 ch, ~128.00 kbps avg
Сэмпл
Format                      : AVI
Format/Info                 : Audio Video Interleave
File size                   : 744 MiB
Duration                    : 1 h 38 min
Overall bit rate            : 1 057 kb/s
Writing application         : VirtualDubMod 1.5.10.3 | www.virtualdub-fr.org || (build 2550/release)
Writing library             : VirtualDubMod build 2550/release

Video
ID                          : 0
Format                      : MPEG-4 Visual
Format profile              : Advanced [email protected]
Format settings             : BVOP1
Format settings, BVOP       : 1
Format settings, QPel       : No
Format settings, GMC        : No warppoints
Format settings, Matrix     : Default (H.263)
Codec ID                    : XVID
Codec ID/Hint               : XviD
Duration                    : 1 h 38 min
Bit rate                    : 920 kb/s
Width                       : 688 pixels
Height                      : 288 pixels
Display aspect ratio        : 2.40:1
Frame rate                  : 25.000 FPS
Color space                 : YUV
Chroma subsampling          : 4:2:0
Bit depth                   : 8 bits
Scan type                   : Progressive
Compression mode            : Lossy
Bits/(Pixel*Frame)          : 0.186
Stream size                 : 647 MiB (87%)
Writing library             : XviD 73

Audio
ID                          : 1
Format                      : MPEG Audio
Format version              : Version 1
Format profile              : Layer 3
Codec ID                    : 55
Codec ID/Hint               : MP3
Duration                    : 1 h 38 min
Bit rate mode               : Constant
Bit rate                    : 128 kb/s
Channel(s)                  : 2 channels
Sampling rate               : 48.0 kHz
Frame rate                  : 41.667 FPS (1152 SPF)
Compression mode            : Lossy
Stream size                 : 90.1 MiB (12%)
Alignment                   : Aligned on interleaves
Interleave, duration        : 40  ms (1.00 video frame)
Interleave, preload duratio : 504  ms
Writing library             : LAME3.99r
Encoding settings           : -m s -V 4 -q 2 -lowpass 17 -b 128


Трекер:  [ 29-Апр-2018 08:24 ]

  

Скачать .torrent

Размер .torrent файла 15 KB


Размер: 744 MB
Хэш (hash) релиза: ee169bdfd17a420ceb827a9ea24447b0800d23c8
Подписка на обновления:

Торренты, похожие на Я худею скачать торрент

Форум Название Автор Размер S L Добавлен
Российские фильмы 2016-2018 (Новинки русского кино) ·· Я худею (Алексей Нужный) [2018, комедия, WEB-DLRip-AVC] iTunes Galfimbul 781653986745 MB 0 0 1524777626

00:20

27-Апр-18

Российские фильмы до 2016 ·· Я худею (Алексей Нужный) [2018, комедия, WEB-DLRip-AVC] Galfimbul 15981848291.49 GB 0 0 1524743663

14:54

26-Апр-18

Российские фильмы до 2016 ·· Я худею (Алексей Нужный) [2018, Россия, комедия, WEB-DL 1080p] Original Rus Galfimbul 36880322023.43 GB 0 0 1524724244

09:30

26-Апр-18

Российские фильмы до 2016 ·· Я худею (Алексей Нужный) [2018, комедия, WEB-DLRip] Galfimbul 15640555521.46 GB 0 0 1524713056

06:24

26-Апр-18

Российские фильмы 2016-2018 (Новинки русского кино) ·· Я худею (Алексей Нужный) [2018 г., Комедия, WEB-DLRip] iTunes Galfimbul 14684610561.37 GB 0 0 1524688329

23:32

25-Апр-18

Российские фильмы 2016-2018 (Новинки русского кино) ·· Я худею (Алексей Нужный) [2018 г., Комедия, WEB-DL 1080p] iTunes Galfimbul 36880322023.43 GB 0 0 1524688317

23:31

25-Апр-18

Документальные фильмы и телепередачи ·· Профессия - репортер. Я худею, дорогая редакция! Эфир от 14.07.2012 [2012, Документальный, SATRip] Galfimbul 295200756282 MB 0 0 1497053773

03:16

10-Июн-17

Еще никто не оставлял запись к записи скачать торрент Я худею . Будь первым!

!Обратная связь