AVPlayerHD v2.91 | Infinite Skills - Cisco 200-101 (ICND2) Exam Training Video | Idol Army

Скачать через торрент Я худею Фильм бесплатно в хорошем качестве torrent

Скачивайте на UnionPeer.org фильмы через торрент без регистрации. Новинки кино в хорошем качестве через торрент. На UnionPeer.org можно скачать через торрент фильмы 2014 и 2015 годов. Самые новые фильмы.

Скачать торрент Я худею бесплатно через .torrent фильм мультфильм сериал

Статистика раздачи
Размер:  1.49 GB   |    Зарегистрирован:  1 месяц 28 дней   |    .torrent скачан:  201 раз   |   
Раздают:  1  
   
загрузка...
 
Автор Сообщение

Galfimbul

avatar Galfimbul


Я худею
Год выпуска: 2018
Страна: Россия
Жанр: комедия
Продолжительность: 01:38:23
Режиссёр: Алексей Нужный
В ролях: Александра Бортич, Ирина Горбачева, Сергей Шнуров, Евгений Кулик, Роман Курцын, Александр Пташенчук, Елена Валюшкина, Валерия Дергилева, Андрей Трушин, Олег Кассин и др.
Описание: В жизни Ани есть две главные любви — её парень Женя и еда. Из-за еды они и расстаются: Жене совсем не нравится, как Аня стала выглядеть. Аня не готова просто сдаться. При поддержке лучшей подруги и увлечённого здоровым образом жизни добряка Коли она пускается в увлекательное приключение, чтобы похудеть и обрести любовь и счастье.
КиноПоиск | IMDb | Sample
Качество: WEB-DLRip-AVC (Источник: Я худею 2018 WEB-DL 1080p)
Формат: MKV
Видео: x264, 1104x462 (2.40:1), 24.000 fps, ~1739 Kbps avg, 0.139 bit/pixel
Аудио: Русский 48.0 KHz, AС3, 3/2 (L,C,R,l,r) + LFE ch, ~384.00 kbps avg
Рип - whip93.
<div class="sp-wrap">
<div class="sp-head folded">x264 log</div>
<div class="sp-body">raw [info]: 1104x462p 1:1 @ 25/1 fps (cfr)
raw [info]: color matrix: bt709
x264 [info]: using SAR=1/1
x264 [info]: using cpu capabilities: MMX2 SSE2Fast SSSE3 SSE4.2 AVX
x264 [info]: profile High, level 4.1
x264 [info]: cabac=1 ref=16 deblock=1:-3:-3 analyse=0x3:0x133 me=umh subme=10 psy=1 fade_compensate=0.00 psy_rd=1.00:0.08 mixed_ref=0 me_range=32 chroma_me=1 trellis=2 8x8dct=1 cqm=0 deadzone=21,11 fast_pskip=1 chroma_qp_offset=-3 threads=12 lookahead_threads=2 sliced_threads=0 nr=0 decimate=1 interlaced=0 bluray_compat=0 constrained_intra=0 fgo=0 bframes=9 b_pyramid=2 b_adapt=2 b_bias=0 direct=1 weightb=1 open_gop=0 weightp=2 keyint=250 keyint_min=25 scenecut=40 intra_refresh=0 rc_lookahead=90 rc=crf mbtree=1 crf=19.0000 qcomp=0.72 qpmin=0:0:0 qpmax=69:69:69 qpstep=4 ip_ratio=1.40 aq=1:0.80 aq-sensitivity=10.00 aq-factor=1.00:1.00:1.00 aq2=0 aq3=0
x264 [info]: started at Thu Apr 26 10:18:40 2018

x264 [info]: frame I:1448 Avg QP:16.02 size: 71236
x264 [info]: frame P:38039 Avg QP:19.88 size: 18148
x264 [info]: frame B:108107 Avg QP:23.19 size: 4810
x264 [info]: consecutive B-frames: 2.7% 4.1% 5.2% 66.6% 6.2% 12.3% 1.1% 1.3% 0.1% 0.5%
x264 [info]: mb I I16..4: 7.7% 68.6% 23.8%
x264 [info]: mb P I16..4: 1.5% 9.5% 1.5% P16..4: 53.7% 11.2% 9.2% 0.7% 0.2% skip:12.4%
x264 [info]: mb B I16..4: 0.1% 1.0% 0.2% B16..8: 38.6% 6.6% 1.9% direct: 3.7% skip:47.9% L0:37.9% L1:46.8% BI:15.3%
x264 [info]: 8x8 transform intra:74.2% inter:69.3%
x264 [info]: coded y,uvDC,uvAC intra: 80.1% 86.3% 62.2% inter: 16.0% 16.3% 4.1%
x264 [info]: i16 v,h,dc,p: 23% 17% 6% 55%
x264 [info]: i8 v,h,dc,ddl,ddr,vr,hd,vl,hu: 16% 12% 5% 7% 11% 13% 12% 12% 12%
x264 [info]: i4 v,h,dc,ddl,ddr,vr,hd,vl,hu: 15% 11% 3% 8% 14% 14% 13% 11% 12%
x264 [info]: i8c dc,h,v,p: 35% 23% 23% 19%
x264 [info]: Weighted P-Frames: Y:3.5% UV:2.2%
x264 [info]: ref P L0: 54.8% 9.5% 14.5% 5.0% 3.9% 2.6% 2.2% 1.2% 1.3% 1.0% 0.9% 0.7% 0.7% 0.6% 0.6% 0.5%
x264 [info]: ref B L0: 82.7% 7.8% 3.2% 1.5% 1.4% 0.8% 0.5% 0.4% 0.5% 0.4% 0.2% 0.2% 0.2% 0.1% 0.1%
x264 [info]: ref B L1: 96.1% 3.9%
x264 [info]: kb/s:1779.87

x264 [total]: encoded 147594 frames, 11.81 fps, 1779.87 kb/s, 1252.6 MB
General
Unique ID : 250749466286673914323667383942788903624 (0xBCA4972F5663B0B1A1D9BE53F22772C8)
Complete name : H:\Я.худею.2018.WEB-DLRip.DD5.1.x264.-whip93.mkv
Format : Matroska
Format version : Version 4 / Version 2
File size : 1.49 GiB
Duration : 1h 38mn
Overall bit rate : 2 166 Kbps
Movie name : Я худею (2018) - Release by whip93
Encoded date : UTC 2018-04-26 10:02:05
Writing application : mkvmerge v6.1.0 ('Old Devil') built on Mar 4 2013 09:10:42
Writing library : libebml v1.3.0 + libmatroska v1.4.0

Video
ID : 1
Format : AVC
Format/Info : Advanced Video Codec
Format profile : [email protected]
Format settings, CABAC : Yes
Format settings, ReFrames : 16 frames
Codec ID : V_MPEG4/ISO/AVC
Duration : 1h 38mn
Bit rate : 1 739 Kbps
Width : 1 104 pixels
Height : 462 pixels
Display aspect ratio : 2.40:1
Frame rate mode : Constant
Frame rate : 25.000 fps
Color space : YUV
Chroma subsampling : 4:2:0
Bit depth : 8 bits
Scan type : Progressive
Bits/(Pixel*Frame) : 0.136
Stream size : 1.19 GiB (80%)
Title : Encoded by whip93
Writing library : x264 core 155 r2867+82 a249126 t_mod_Custom_2 [[email protected] X86_64]
Encoding settings : cabac=1 / ref=16 / deblock=1:-3:-3 / analyse=0x3:0x133 / me=umh / subme=10 / psy=1 / fade_compensate=0.00 / psy_rd=1.00:0.08 / mixed_ref=0 / me_range=32 / chroma_me=1 / trellis=2 / 8x8dct=1 / cqm=0 / deadzone=21,11 / fast_pskip=1 / chroma_qp_offset=-3 / threads=12 / lookahead_threads=2 / sliced_threads=0 / nr=0 / decimate=1 / interlaced=0 / bluray_compat=0 / constrained_intra=0 / fgo=0 / bframes=9 / b_pyramid=2 / b_adapt=2 / b_bias=0 / direct=1 / weightb=1 / open_gop=0 / weightp=2 / keyint=250 / keyint_min=25 / scenecut=40 / intra_refresh=0 / rc_lookahead=90 / rc=crf / mbtree=1 / crf=19.0000 / qcomp=0.72 / qpmin=0:0:0 / qpmax=69:69:69 / qpstep=4 / ip_ratio=1.40 / aq=1:0.80 / aq-sensitivity=10.00 / aq-factor=1.00:1.00:1.00 / aq2=0 / aq3=0
Language : Russian
Default : Yes
Forced : No
Color primaries : BT.709
Transfer characteristics : BT.709
Matrix coefficients : BT.709

Audio
ID : 2
Format : AC-3
Format/Info : Audio Coding 3
Mode extension : CM (complete main)
Format settings, Endianness : Big
Codec ID : A_AC3
Duration : 1h 38mn
Bit rate mode : Constant
Bit rate : 384 Kbps
Channel(s) : 6 channels
Channel positions : Front: L C R, Side: L R, LFE
Sampling rate : 48.0 KHz
Bit depth : 16 bits
Compression mode : Lossy
Stream size : 270 MiB (18%)
Language : Russian
Default : Yes
Forced : No

Menu
00:00:00.000 : ru:Глава 1
00:07:05.200 : ru:Глава 2
00:15:08.160 : ru:Глава 3
00:22:09.760 : ru:Глава 4
00:29:00.280 : ru:Глава 5
00:36:41.960 : ru:Глава 6
00:43:20.520 : ru:Глава 7
00:51:15.240 : ru:Глава 8
00:58:42.640 : ru:Глава 9
01:06:14.120 : ru:Глава 10
01:13:24.240 : ru:Глава 11
01:20:43.280 : ru:Глава 12
01:27:54.240 : ru:Глава 13

</div>
</div>


Трекер:  [ 26-Апр-2018 14:54 ]

  

Скачать .torrent

Размер .torrent файла 15 KB


Размер: 1.49 GB
Хэш (hash) релиза: 378420aa2349172ed7ce0746d61a3accced0ed37
Подписка на обновления:

Торренты, похожие на Я худею скачать торрент

Форум Название Автор Размер S L Добавлен
Российские фильмы до 2016 ·· Я худею (Алексей Нужный) [2018, комедия, WEB-DLRip] Galfimbul 780314624744 MB 0 0 1524979453

08:24

29-Апр-18

Российские фильмы 2016-2018 (Новинки русского кино) ·· Я худею (Алексей Нужный) [2018, комедия, WEB-DLRip-AVC] iTunes Galfimbul 781653986745 MB 0 0 1524777626

00:20

27-Апр-18

Российские фильмы до 2016 ·· Я худею (Алексей Нужный) [2018, Россия, комедия, WEB-DL 1080p] Original Rus Galfimbul 36880322023.43 GB 0 0 1524724244

09:30

26-Апр-18

Российские фильмы до 2016 ·· Я худею (Алексей Нужный) [2018, комедия, WEB-DLRip] Galfimbul 15640555521.46 GB 0 0 1524713056

06:24

26-Апр-18

Российские фильмы 2016-2018 (Новинки русского кино) ·· Я худею (Алексей Нужный) [2018 г., Комедия, WEB-DLRip] iTunes Galfimbul 14684610561.37 GB 0 0 1524688329

23:32

25-Апр-18

Российские фильмы 2016-2018 (Новинки русского кино) ·· Я худею (Алексей Нужный) [2018 г., Комедия, WEB-DL 1080p] iTunes Galfimbul 36880322023.43 GB 0 0 1524688317

23:31

25-Апр-18

Документальные фильмы и телепередачи ·· Профессия - репортер. Я худею, дорогая редакция! Эфир от 14.07.2012 [2012, Документальный, SATRip] Galfimbul 295200756282 MB 0 0 1497053773

03:16

10-Июн-17

Еще никто не оставлял запись к записи скачать торрент Я худею . Будь первым!

!Обратная связь