Greys Anatomy S14E24 FiNAL FRENCH HDTV XviD-ZT | The Originals S05E07 HDTV x264-KILLERS[ettv] | Legion S02E11 HDTV x264-SVA[eztv]

Скачать через торрент Я худею Фильм бесплатно в хорошем качестве torrent

Скачивайте на UnionPeer.org фильмы через торрент без регистрации. Новинки кино в хорошем качестве через торрент. На UnionPeer.org можно скачать через торрент фильмы 2014 и 2015 годов. Самые новые фильмы.

Скачать торрент Я худею бесплатно через .torrent фильм мультфильм сериал

Статистика раздачи
Размер:  3.43 GB   |    Зарегистрирован:  1 месяц 28 дней   |    .torrent скачан:  353 раза   |   
Раздают:  1  
   
загрузка...
 
Автор Сообщение

Galfimbul

avatar Galfimbul


Я худею

Страна: Россия
Студия: Vice Films
Жанр: комедия
Год выпуска: 2018
Продолжительность: 01:38:23

Перевод: Не требуется
Субтитры: нет
Оригинальная аудиодорожка: русский

Режиссёр: Алексей Нужный

В ролях: Александра Бортич, Ирина Горбачева, Сергей Шнуров, Евгений Кулик, Роман Курцын, Александр Пташенчук, Елена Валюшкина, Валерия Дергилева, Андрей Трушин, Олег Кассин
Описание: В жизни Ани есть две главные любви — её парень Женя и еда. Из-за еды они и расстаются: Жене совсем не нравится, как Аня стала выглядеть. Аня не готова просто сдаться. При поддержке лучшей подруги и увлечённого здоровым образом жизни добряка Коли она пускается в увлекательное приключение, чтобы похудеть и обрести любовь и счастье.

Sample

Тип релиза: WEB-DL 1080p
Контейнер: MKV

Видео: MPEG4 AVC Video, H264, 1920x804, 25 fps, 4514 kbps
Аудио: Russian (AC3, 6 ch, 384 kbps, 16 bits, 48.0 KHz) - оригинал
General
Unique ID : 208298766482530590583891745980610815884 (0x9CB4E217BDC3B946A7097F9B8FACA78C)
Complete name : D:\Я худею 2018 WEB-DL 1080p.mkv
Format : Matroska
Format version : Version 2
File size : 3.43 GiB
Duration : 1h 38mn
Overall bit rate : 4 997 Kbps
Encoded date : UTC 2018-04-25 18:21:58
Writing application : mkvmerge v8.3.0 ('Over the Horizon') 64bit
Writing library : libebml v1.3.1 + libmatroska v1.4.2
DURATION : 01:38:23.808000000
NUMBER_OF_FRAMES : 184494
NUMBER_OF_BYTES : 283382784
_STATISTICS_WRITING_APP : mkvmerge v8.3.0 ('Over the Horizon') 64bit
_STATISTICS_WRITING_DATE_UTC : 2018-04-25 18:21:58
_STATISTICS_TAGS : BPS DURATION NUMBER_OF_FRAMES NUMBER_OF_BYTES

Video
ID : 1
Format : AVC
Format/Info : Advanced Video Codec
Format profile : [email protected]
Format settings, CABAC : Yes
Format settings, ReFrames : 5 frames
Codec ID : V_MPEG4/ISO/AVC
Duration : 1h 38mn
Bit rate : 4 514 Kbps
Width : 1 920 pixels
Height : 804 pixels
Display aspect ratio : 2.40:1
Frame rate mode : Constant
Frame rate : 25.000 fps
Color space : YUV
Chroma subsampling : 4:2:0
Bit depth : 8 bits
Scan type : Progressive
Bits/(Pixel*Frame) : 0.117
Stream size : 3.10 GiB (90%)
Language : English
Default : Yes
Forced : No
Color primaries : BT.709
Transfer characteristics : BT.709
Matrix coefficients : BT.709

Audio
ID : 2
Format : AC-3
Format/Info : Audio Coding 3
Mode extension : CM (complete main)
Format settings, Endianness : Big
Codec ID : A_AC3
Duration : 1h 38mn
Bit rate mode : Constant
Bit rate : 384 Kbps
Channel count : 6 channels
Channel positions : Front: L C R, Side: L R, LFE
Sampling rate : 48.0 KHz
Bit depth : 16 bits
Compression mode : Lossy
Stream size : 270 MiB (8%)
Language : Russian
Default : Yes
Forced : No

Menu
00:00:00.000 : en:Глава 1
00:07:05.200 : en:Глава 2
00:15:08.160 : en:Глава 3
00:22:09.760 : en:Глава 4
00:29:00.280 : en:Глава 5
00:36:41.960 : en:Глава 6
00:43:20.520 : en:Глава 7
00:51:15.240 : en:Глава 8
00:58:42.640 : en:Глава 9
01:06:14.120 : en:Глава 10
01:13:24.240 : en:Глава 11
01:20:43.280 : en:Глава 12
01:27:54.240 : en:Глава 13


Трекер:  [ 26-Апр-2018 09:30 ]

  

Скачать .torrent

Размер .torrent файла 17 KB


Размер: 3.43 GB
Хэш (hash) релиза: fa33b526c42c3c3507878ffffdb0f3c5216526b5
Подписка на обновления:

Торренты, похожие на Я худею скачать торрент

Форум Название Автор Размер S L Добавлен
Российские фильмы до 2016 ·· Я худею (Алексей Нужный) [2018, комедия, WEB-DLRip] Galfimbul 780314624744 MB 0 0 1524979453

08:24

29-Апр-18

Российские фильмы 2016-2018 (Новинки русского кино) ·· Я худею (Алексей Нужный) [2018, комедия, WEB-DLRip-AVC] iTunes Galfimbul 781653986745 MB 0 0 1524777626

00:20

27-Апр-18

Российские фильмы до 2016 ·· Я худею (Алексей Нужный) [2018, комедия, WEB-DLRip-AVC] Galfimbul 15981848291.49 GB 0 0 1524743663

14:54

26-Апр-18

Российские фильмы до 2016 ·· Я худею (Алексей Нужный) [2018, комедия, WEB-DLRip] Galfimbul 15640555521.46 GB 0 0 1524713056

06:24

26-Апр-18

Российские фильмы 2016-2018 (Новинки русского кино) ·· Я худею (Алексей Нужный) [2018 г., Комедия, WEB-DLRip] iTunes Galfimbul 14684610561.37 GB 0 0 1524688329

23:32

25-Апр-18

Российские фильмы 2016-2018 (Новинки русского кино) ·· Я худею (Алексей Нужный) [2018 г., Комедия, WEB-DL 1080p] iTunes Galfimbul 36880322023.43 GB 0 0 1524688317

23:31

25-Апр-18

Документальные фильмы и телепередачи ·· Профессия - репортер. Я худею, дорогая редакция! Эфир от 14.07.2012 [2012, Документальный, SATRip] Galfimbul 295200756282 MB 0 0 1497053773

03:16

10-Июн-17

Еще никто не оставлял запись к записи скачать торрент Я худею . Будь первым!

!Обратная связь