One Piece Chapter 839: | Re: Zero - Starting Life in Another World (Cantonese) - 從零開始的異世界生活 - Episode 08 | Nanny Killer HD

Скачать через торрент Я худею Фильм бесплатно в хорошем качестве torrent

Скачивайте на UnionPeer.org фильмы через торрент без регистрации. Новинки кино в хорошем качестве через торрент. На UnionPeer.org можно скачать через торрент фильмы 2014 и 2015 годов. Самые новые фильмы.

Скачать торрент Я худею бесплатно через .torrent фильм мультфильм сериал

Статистика раздачи
Размер:  1.46 GB   |    Зарегистрирован:  1 месяц 28 дней   |    .torrent скачан:  119 раз   |   
Раздают:  1  
   
загрузка...
 
Автор Сообщение

Galfimbul

avatar Galfimbul


Я худею

Страна: Россия
Жанр: комедия
Год выпуска: 2018
Продолжительность: 01:38:23
Субтитры: нет
Режиссер:
Алексей Нужный
В ролях:
Александра Бортич, Ирина Горбачева, Сергей Шнуров, Евгений Кулик, Роман Курцын, Александр Пташенчук, Елена Валюшкина, Валерия Дергилева, Андрей Трушин, Олег Кассин
Описание:
В жизни Ани есть две главные любви — её парень Женя и еда. Из-за еды они и расстаются: Жене совсем не нравится, как Аня стала выглядеть. Аня не готова просто сдаться. При поддержке лучшей подруги и увлечённого здоровым образом жизни добряка Коли она пускается в увлекательное приключение, чтобы похудеть и обрести любовь и счастье.
Качество видео: WEB-DLRip
Формат видео: AVI

Видео: 720x304 (2.37:1), 25 fps, XviD build 73 ~1725 kbps avg, 0.32 bit/pixel
Аудио: 48 kHz, AC3 Dolby Digital, 3/2 (L,C,R,l,r) + LFE ch, ~384 kbps
Сэмпл
Format                      : AVI
Format/Info                 : Audio Video Interleave
File size                   : 1.46 GiB
Duration                    : 1 h 38 min
Overall bit rate            : 2 119 kb/s
Writing application         : VirtualDubMod 1.5.10.3 | www.virtualdub-fr.org || (build 2550/release)
Writing library             : VirtualDubMod build 2550/release

Video
ID                          : 0
Format                      : MPEG-4 Visual
Format profile              : Advanced [email protected]
Format settings             : BVOP1 / Custom Matrix
Format settings, BVOP       : 1
Format settings, QPel       : No
Format settings, GMC        : No warppoints
Format settings, Matrix     : Custom
Codec ID                    : XVID
Codec ID/Hint               : XviD
Duration                    : 1 h 38 min
Bit rate                    : 1 726 kb/s
Width                       : 720 pixels
Height                      : 304 pixels
Display aspect ratio        : 2.35:1
Frame rate                  : 25.000 FPS
Color space                 : YUV
Chroma subsampling          : 4:2:0
Bit depth                   : 8 bits
Scan type                   : Progressive
Compression mode            : Lossy
Bits/(Pixel*Frame)          : 0.315
Stream size                 : 1.19 GiB (81%)
Writing library             : XviD 73

Audio
ID                          : 1
Format                      : AC-3
Format/Info                 : Audio Coding 3
Codec ID                    : 2000
Duration                    : 1 h 38 min
Bit rate mode               : Constant
Bit rate                    : 384 kb/s
Channel(s)                  : 6 channels
Channel positions           : Front: L C R, Side: L R, LFE
Sampling rate               : 48.0 kHz
Frame rate                  : 31.250 FPS (1536 SPF)
Bit depth                   : 16 bits
Compression mode            : Lossy
Stream size                 : 270 MiB (18%)
Alignment                   : Split accross interleaves
Interleave, duration        : 40  ms (1.00 video frame)
Interleave, preload duratio : 500  ms
Service kind                : Complete Main


Трекер:  [ 26-Апр-2018 06:24 ]

  

Скачать .torrent

Размер .torrent файла 15 KB


Размер: 1.46 GB
Хэш (hash) релиза: 5ba62d0e1a24180645f3a82f831997da33ff8f35
Подписка на обновления:

Торренты, похожие на Я худею скачать торрент

Форум Название Автор Размер S L Добавлен
Российские фильмы до 2016 ·· Я худею (Алексей Нужный) [2018, комедия, WEB-DLRip] Galfimbul 780314624744 MB 0 0 1524979453

08:24

29-Апр-18

Российские фильмы 2016-2018 (Новинки русского кино) ·· Я худею (Алексей Нужный) [2018, комедия, WEB-DLRip-AVC] iTunes Galfimbul 781653986745 MB 0 0 1524777626

00:20

27-Апр-18

Российские фильмы до 2016 ·· Я худею (Алексей Нужный) [2018, комедия, WEB-DLRip-AVC] Galfimbul 15981848291.49 GB 0 0 1524743663

14:54

26-Апр-18

Российские фильмы до 2016 ·· Я худею (Алексей Нужный) [2018, Россия, комедия, WEB-DL 1080p] Original Rus Galfimbul 36880322023.43 GB 0 0 1524724244

09:30

26-Апр-18

Российские фильмы 2016-2018 (Новинки русского кино) ·· Я худею (Алексей Нужный) [2018 г., Комедия, WEB-DLRip] iTunes Galfimbul 14684610561.37 GB 0 0 1524688329

23:32

25-Апр-18

Российские фильмы 2016-2018 (Новинки русского кино) ·· Я худею (Алексей Нужный) [2018 г., Комедия, WEB-DL 1080p] iTunes Galfimbul 36880322023.43 GB 0 0 1524688317

23:31

25-Апр-18

Документальные фильмы и телепередачи ·· Профессия - репортер. Я худею, дорогая редакция! Эфир от 14.07.2012 [2012, Документальный, SATRip] Galfimbul 295200756282 MB 0 0 1497053773

03:16

10-Июн-17

Еще никто не оставлял запись к записи скачать торрент Я худею . Будь первым!

!Обратная связь