Tupu – Das wilde Mädchen aus dem Central Park | BD Seikon no Qwaser Season 1 Subtitle Indonesia | Fishbowl California (2018)

Скачать через торрент Жили-были Фильм бесплатно в хорошем качестве torrent

Скачивайте на UnionPeer.org фильмы через торрент без регистрации. Новинки кино в хорошем качестве через торрент. На UnionPeer.org можно скачать через торрент фильмы 2014 и 2015 годов. Самые новые фильмы.

Скачать торрент Жили-были бесплатно через .torrent фильм мультфильм сериал

Статистика раздачи
Размер:  743 MB   |    Зарегистрирован:  2 месяца   |    .torrent скачан:  24 раза   |   
Раздают:  1  
   
загрузка...
 
Автор Сообщение

Galfimbul

avatar Galfimbul


Жили-были

Страна: Россия
Жанр: комедия
Год выпуска: 2017
Продолжительность: 01:26:55
Субтитры: нет
Режиссер: Эдуард Парри
В ролях: Федор Добронравов, Ирина Розанова, Роман Мадянов, Виктор Супрун, Владимир Капустин, Альбина Евтушевская, Алексей Ведерников, Ирина Сойкина, Владимир Карпов
Описание: Старинная деревня в русской глубинке. Из жителей только два одиноких немолодых мужчины и внезапно овдовевшая женщина. Один из друзей решает, что пора завязывать с одиночеством и собирается предложить вдове руку и сердце. Но второй мужчина в корне с этим не согласен и тоже претендует на вакантное место. Лучшие друзья объявляют друг другу войну.
Качество видео: WEB-DLRip
Формат видео: AVI

Видео: 688x288 (2.39:1), 23.976 fps, XviD build 73 ~1057 kbps avg, 0.22 bit/pixel
Аудио: 48 kHz, MPEG Layer 3, 2 ch, ~128.00 kbps avg
Сэмпл
Format                      : AVI
Format/Info                 : Audio Video Interleave
File size                   : 743 MiB
Duration                    : 1 h 26 min
Overall bit rate            : 1 195 kb/s
Writing application         : VirtualDubMod 1.5.10.3 | www.virtualdub-fr.org || (build 2550/release)
Writing library             : VirtualDubMod build 2550/release

Video
ID                          : 0
Format                      : MPEG-4 Visual
Format profile              : Advanced [email protected]
Format settings             : BVOP1
Format settings, BVOP       : 1
Format settings, QPel       : No
Format settings, GMC        : No warppoints
Format settings, Matrix     : Default (H.263)
Codec ID                    : XVID
Codec ID/Hint               : XviD
Duration                    : 1 h 26 min
Bit rate                    : 1 058 kb/s
Width                       : 688 pixels
Height                      : 288 pixels
Display aspect ratio        : 2.40:1
Frame rate                  : 23.976 (24000/1001) FPS
Color space                 : YUV
Chroma subsampling          : 4:2:0
Bit depth                   : 8 bits
Scan type                   : Progressive
Compression mode            : Lossy
Bits/(Pixel*Frame)          : 0.223
Stream size                 : 658 MiB (89%)
Writing library             : XviD 73

Audio
ID                          : 1
Format                      : MPEG Audio
Format version              : Version 1
Format profile              : Layer 3
Codec ID                    : 55
Codec ID/Hint               : MP3
Duration                    : 1 h 26 min
Bit rate mode               : Constant
Bit rate                    : 128 kb/s
Channel(s)                  : 2 channels
Sampling rate               : 48.0 kHz
Frame rate                  : 41.667 FPS (1152 SPF)
Compression mode            : Lossy
Stream size                 : 79.6 MiB (11%)
Alignment                   : Aligned on interleaves
Interleave, duration        : 42  ms (1.00 video frame)
Interleave, preload duratio : 504  ms
Writing library             : LAME3.99r
Encoding settings           : -m s -V 4 -q 2 -lowpass 17 -b 128


Трекер:  [ 23-Апр-2018 21:24 ]

  

Скачать .torrent

Размер .torrent файла 15 KB


Размер: 743 MB
Хэш (hash) релиза: 0abacf780ae4a20d11fe7f248d319b009103dd8e
Подписка на обновления:

Торренты, похожие на Жили-были скачать торрент

Форум Название Автор Размер S L Добавлен
Мультфильмы до 2016 ·· Жили-были мысли.Сборник мультфильмов (Где ты, мой конь?,Жили - были мысли,Золотой гвоздь,Как было написано первое письмо,Мальчик с уздечкой,Маруся - богуславка,Мыколино богатство,Сказка о карасях, зайцах и бубликах) [1966-1988, мультфильм, DVD5] Galfimbul 35788062723.33 GB 0 0 1347113520

17:12

8-Сен-12

Российские фильмы 2016-2018 (Новинки русского кино) ·· Жили-были (Эдуард Парри) [2017, комедия, WEB-DLRip] iTunes Galfimbul 782270434746 MB 0 0 1524567010

13:50

24-Апр-18

Российские фильмы 2016-2018 (Новинки русского кино) ·· Жили-были (Эдуард Парри) [2017, Россия, комедия, WEB-DLRip] iTunes Galfimbul 733792256700 MB 0 0 1524471019

11:10

23-Апр-18

Российские фильмы 2016-2018 (Новинки русского кино) ·· Жили-были (Эдуард Парри) [2017, Россия, комедия, WEB-DLRip] Galfimbul 15689809921.46 GB 0 0 1524461054

08:24

23-Апр-18

Российские фильмы 2016-2018 (Новинки русского кино) ·· Жили-были (Эдуард Парри) [2017, Россия, комедия, WEB-DL 720p] iTunes Galfimbul 28845078492.69 GB 0 0 1524432044

00:20

23-Апр-18

Российские фильмы 2016-2018 (Новинки русского кино) ·· Жили-были (Эдуард Парри) [2017, Россия, комедия, WEB-DL 1080p] iTunes Galfimbul 32317822033.01 GB 0 0 1524427253

23:00

22-Апр-18

Развлекательные телепередачи и шоу ·· Геннадий Хазанов. Жил-был я [2002, Документальное кино, Юмор, VHSRip] Galfimbul 2352821043221.91 GB 0 0 1519325307

21:48

22-Фев-18

Мультфильмы до 2016 ·· Жила-была последняя мушка (Владимир Петкевич) [2009, Беларусь, мультфильм, экранизация, WEBRip] Galfimbul 215977862206 MB 0 0 1504406185

05:36

3-Сен-17

Мультфильмы 2016-2018 (Новинки мультфильмов) ·· Жил-был кот / Rudorufu to ippai attena / Rudolf The Black Cat (Микинори Сакакибара, Кунихико Юяма) [2016, комедия, приключения, BDRip 720p] Galfimbul 46203398664.3 GB 0 0 1503920460

14:41

28-Авг-17

Мультфильмы до 2016 ·· Жил-был кот / Rudolf the Black Cat / Rudorufu to ippai attena (Микинори Сакакибара / Mikinori Sakakibara, Кунихико Юяма / Kunihiko Yuyama) [2016, Япония, Канада, мультфильм, комедия, приключения, WEB-DL 720p] [Локализованный видеоряд] Dub (iTunes) Galfimbul 28801419312.68 GB 0 0 1503831975

14:06

27-Авг-17

Мультфильмы 2016-2018 (Новинки мультфильмов) ·· Жил-был кот / Rudorufu to ippai attena / Rudolf The Black Cat (Микинори Сакакибара, Кунихико Юяма) [2016, комедия, приключения, HDRip] Galfimbul 14668226561.37 GB 0 0 1503810618

08:10

27-Авг-17

Мультфильмы до 2016 ·· Жил-был кот / Rudolf The Black Cat (Микинори Сакакибара / Mikinori Sakakibara, Кунихико Юяма / Kunihiko Yuyama) [2016, Япония, Канада, мультфильм, комедия, приключения, HDRip] Dub Galfimbul 15636029441.46 GB 0 0 1503751026

15:37

26-Авг-17

Российские фильмы до 2016 ·· Жил-был дед (Борис Казаков) [2008, Драма, SATRip] Galfimbul 760577172725 MB 0 0 1500751858

22:30

22-Июл-17

Российские сериалы ·· Жила-была одна баба / Серии: 1-5 из 5 (Расширенная версия) (Андрей Смирнов) [2014, Драма, история, WEBRip] Galfimbul 33863536643.15 GB 0 0 1475604968

21:16

4-Окт-16

Российские сериалы ·· Жила-была одна баба / Серии: 1-5 из 5 (Расширенная версия) (Андрей Смирнов) [2014, Драма, история, WEBRip 1080i] Galfimbul 66548133996.2 GB 0 0 1475586696

16:11

4-Окт-16

Зарубежные фильмы до 2016 ·· Жил-был дурак / A fool there was (Фрэнк Пауэлл / Frank Powell) [1915, США, драма, DVD5 (Custom)] [Немое кино] Интертитры (Eng) + Sub Rus (marafon79) Galfimbul 31435325442.93 GB 0 0 1474281181

13:33

19-Сен-16

Мультсериалы ·· Жили-были... первооткрыватели / Il etait une fois ... decouvreurs / Серии: 01-08, 10-26 из 26 (Альбер Барийе / Albert Barille) [1994 г., мультсериал, семейный, история, DVB] Galfimbul 1857854464017.3 GB 0 0 1464942927

11:35

3-Июн-16

Мультсериалы ·· Жили-были... искатели / Il etait une fois ... les Explorateurs / Серии: 01-05, 07-26 из 26 (Альбер Барийе / Albert Barille) [1996 г., мультсериал, семейный, история, DVB] Galfimbul 1857053491217.3 GB 0 0 1464801764

20:22

1-Июн-16

Российские фильмы до 2016 ·· Жили-были... Навсегда (Анна Соколова) [2013, Россия, короткометражка, фэнтези, драма, WEB-DLRip-AVC] Sub (eng) Galfimbul 461202319440 MB 0 0 1453795411

11:03

26-Янв-16

Еще никто не оставлял запись к записи скачать торрент Жили-были . Будь первым!

!Обратная связь