The.Blacklist.S03E18 | good reggae music, | Das Geheimnis der Hunters

Скачать через торрент Медея. Вырезанные сцены Médée. Scènes coupées Фильм бесплатно в хорошем качестве torrent

Скачивайте на UnionPeer.org фильмы через торрент без регистрации. Новинки кино в хорошем качестве через торрент. На UnionPeer.org можно скачать через торрент фильмы 2014 и 2015 годов. Самые новые фильмы.

Скачать торрент Медея. Вырезанные сцены Médée. Scènes coupées бесплатно через .torrent фильм мультфильм сериал

Статистика раздачи
Размер:  726 MB   |    Зарегистрирован:  3 месяца 27 дней   |    .torrent скачан:  33 раза   |   
Раздают:  1  
   
загрузка...
 
Автор Сообщение

Galfimbul

avatar Galfimbul


Медея. Вырезанные сцены / Médée. Scènes coupées

Страна: Италия - Франция
Жанр: драма
Год выпуска: 2004
Продолжительность: 00:35:07

Перевод: Одноголосый закадровый
Субтитры: нет
Режиссер: Пьер Паоло Пазолини / Pier Paolo Pasolini
В ролях: Мария Каллас, Джузеппе Джентиле

Описание: Этот материал – тридцать пять минут вырезанных сцен из «Видений Медеи» (рабочее название фильма «Медея» Пьера Паоло Пазолини) – был найден в синематеке г. Порденоне «Cinemazero» в 2004 году. Он никогда не демонстрировался, так как Пазолини не использовал его при окончательном монтаже фильма.

Снятые в Турции созерцательные планы Колхиды, юность Ясона, первое альтернативное появление Марии Каллас в образе Медеи, масштабные сцены жертвоприношений, большинство которых было утеряно, и особенно финальные кадры, изображающие Медею восходящей вместе с детьми на золотой колеснице (сконструированной Пазолини вместе с художником-постановщиком Данте Ферретти) к её прародителю, богу Солнца Гелиосу, раскрывают нам первоначальный замысел Пазолини, основанный на тексте Эврипида и отличный от окончательной режиссёрской трактовки трагедии.

Фильм переведён на русский язык. Закадровый текст, предваряющий каждую часть, даёт зрителю понять, какое место отведено снятым сценам в фильме по замыслу Пазолини.
Съёмки фильма продолжались четыре месяца, в том числе около месяца в Cinecittà, и проходили всегда в очень неудобных местах, так как кино Пазолини не было «удобным». Съёмки в Турции и в Сирии были изнурительными. Были ужасные моменты во время съёмок из-за усталости и сильной жары. Съёмки Пазолини всегда были утомительными. Он был очень хорошим ходоком, он сам выбирал места для съёмки.

Как-то мы оказались в середине пустыни, где был небольшой холм высотой в два или три километра, и он сказал: «Я хочу, чтобы камера была там». И нам нужно было подняться туда пешком...

Не стоит забывать, что Мария Каллас бежала или играла сцену безумия, одетая во все эти вещи... Только одни её бусы весили 20 килограммов. И потом, все эти нарядные одежды, ткани были очень тяжёлые... Ей приходилось носить на себе как минимум 50 килограммов.

Кроме того, однажды на съёмке она потеряла сознание и упала в обморок. Мы опасались худшего. Она ударилась лицом о землю и не двигалась. Мы приводили её в чувство...


Перед началом фильма я прочитал свой контракт, где было сказано, что Мария Каллас имела право выбросить, сжечь, уничтожить любую фотографию. Ладно, будем терпеливы, сказал я себе. Но с её репутацией... Она слыла грозной женщиной, особенно в отношении к общественности и к журналистам. В общем, я немного боялся. В действительности, она была замечательным человеком.
Доп. информация:
Текст и редакция – Николя Рипош
Монтаж – Фабьян Рикур-Ламбар
© Carlotta Films / Allerton Films 2004
© Cinemazero 2004
Перевод интертитров: adalgama
Фильм озвучила Ольга Шувалова, 2018 г.

Сэмпл: http://yadi.sk/i/kuwYMsRA3UczWX

Качество видео: DVDRip
Формат видео: AVI

Видео: 720x518 (1.39:1), 25 fps, XviD MPEG-4 ~2687 kbps avg, 0.29 bit/pixel
Аудио: 48 kHz, AC3 Dolby Digital, 2/0 (L,R) ch, ~192 kbps
ОбщееПолное имя : C:\tor\Medea.Cutted.scenes\Medea.Cutted.scenes.aviФормат : AVIФормат/Информация : Audio Video InterleaveРазмер файла : 726 МбайтПродолжительность : 35 м. 7 с.Общий поток : 2889 Кбит/секПрограмма кодирования : VirtualDubMod 1.5.4.1 (build 2178/release)Библиотека кодирования : VirtualDub build 32507/release

ВидеоИдентификатор : 0Формат : MPEG-4 VisualПрофиль формата : Advanced [email protected]Настройки формата : BVOP2Параметр BVOP формата : 2Параметр QPel формата : НетПараметр GMC формата : Без точки переходаПараметр матрицы формата : Default (H.263)Режим смешивания : Сжатый битовый потокИдентификатор кодека : XVIDИдентификатор кодека/Подсказка : XviDПродолжительность : 35 м. 7 с.Битрейт : 2687 Кбит/секШирина : 720 пикселейВысота : 518 пикселейСоотношение сторон : 1,390Частота кадров : 25,000 кадров/секЦветовое пространство : YUVСубдискретизация насыщенности : 4:2:0Битовая глубина : 8 битТип развёртки : ПрогрессивнаяМетод сжатия : С потерямиБит/(Пиксели*Кадры) : 0.288Размер потока : 675 Мбайт (93%)Библиотека кодирования : XviD 63

АудиоИдентификатор : 1Формат : AC-3Формат/Информация : Audio Coding 3Идентификатор кодека : 2000Продолжительность : 35 м. 7 с.Вид битрейта : ПостоянныйБитрейт : 192 Кбит/секКаналы : 2 каналаРасположение каналов : Front: L RЧастота : 48,0 КГцЧастота кадров : 31,250 кадров/сек (1536 SPF)Битовая глубина : 16 битМетод сжатия : С потерямиРазмер потока : 48,2 Мбайт (7%)Выравнивание : Соединение по промежуткамПродолжительность промежутка : 40 мс. (1,00 видеокадр)Время предзагрузки промежутка : 512 мс.ServiceKind/String : Complete Main


Трекер:  [ 22-Апр-2018 19:01 ]

  

Скачать .torrent

Размер .torrent файла 14 KB


Размер: 726 MB
Хэш (hash) релиза: 3c3a9cc7596ed75d83a3b77b25abcf5729d27e5f
Подписка на обновления:

Еще никто не оставлял запись к записи скачать торрент Медея. Вырезанные сцены Médée. Scènes coupées . Будь первым!

!Обратная связь