After Effects Project - VideoHive Shiny Impact 90887 | 10,000 Days (2014) | The Little Stranger (2018) 720p BDRip x264 enlace de descarga gratuita

Скачать через торрент Ну, здравствуй, Оксана Соколова! Фильм бесплатно в хорошем качестве torrent

Скачивайте на UnionPeer.org фильмы через торрент без регистрации. Новинки кино в хорошем качестве через торрент. На UnionPeer.org можно скачать через торрент фильмы 2014 и 2015 годов. Самые новые фильмы.

Скачать торрент Ну, здравствуй, Оксана Соколова! бесплатно через .torrent фильм мультфильм сериал

Статистика раздачи
Размер:  744 MB   |    Зарегистрирован:  3 месяца 29 дней   |    .torrent скачан:  69 раз   |   
Раздают:  1  
   
загрузка...
 
Автор Сообщение

Galfimbul

avatar Galfimbul


Ну, здравствуй, Оксана Соколова!

Страна: Россия
Жанр: Комедия
Год выпуска: 2018
Продолжительность: 01:39:54
Субтитры: нет
Режиссер: Кирилл Васильев
В ролях: Виктор Добронравов, Валентина Мазунина, Сергей Бурунов, Борис Дергачев, Алексей Базанов, Александр Стефанцов, Николай Шрайбер, Алексей Медведев, Игорь Гаспарян, Сергей Лавыгин
Описание: Несостоявшемуся актеру Илье наконец-то повезло — с завтрашнего дня его голос будет звучать в эфире «Мужского радио». Как же не отметить такое событие! Но утром новоиспеченный ведущий не может произнести ни слова — голос после бурной вечеринки пропал совсем. Полчаса до эфира, прайм-тайм, подписанный контракт — Илья в панике… Единственный выход — укол в голосовые связки. Только это, по заверению доктора, может спасти ситуацию. И вот ведущий у микрофона. Все готово к эфиру. Обратный отсчет. Илья приветствует радиослушателей… женским голосом! Став заложником нелепой ситуации, герой идёт на всё, чтобы вернуть голос и не упустить свой шанс.
Качество видео: WEB-DLRip
Формат видео: AVI

Видео: 688x288 (2.39:1), 23.976 fps, XviD build 73 ~903 kbps avg, 0.19 bit/pixel
Аудио: 48 kHz, MPEG Layer 3, 2 ch, ~128.00 kbps avg
Сэмпл
Format                      : AVI
Format/Info                 : Audio Video Interleave
File size                   : 744 MiB
Duration                    : 1 h 39 min
Overall bit rate            : 1 041 kb/s
Writing application         : VirtualDubMod 1.5.10.3 | www.virtualdub-fr.org || (build 2550/release)
Writing library             : VirtualDubMod build 2550/release

Video
ID                          : 0
Format                      : MPEG-4 Visual
Format profile              : Advanced [email protected]
Format settings             : BVOP1
Format settings, BVOP       : 1
Format settings, QPel       : No
Format settings, GMC        : No warppoints
Format settings, Matrix     : Default (H.263)
Codec ID                    : XVID
Codec ID/Hint               : XviD
Duration                    : 1 h 39 min
Bit rate                    : 904 kb/s
Width                       : 688 pixels
Height                      : 288 pixels
Display aspect ratio        : 2.40:1
Frame rate                  : 23.976 (24000/1001) FPS
Color space                 : YUV
Chroma subsampling          : 4:2:0
Bit depth                   : 8 bits
Scan type                   : Progressive
Compression mode            : Lossy
Bits/(Pixel*Frame)          : 0.190
Stream size                 : 646 MiB (87%)
Writing library             : XviD 73

Audio
ID                          : 1
Format                      : MPEG Audio
Format version              : Version 1
Format profile              : Layer 3
Codec ID                    : 55
Codec ID/Hint               : MP3
Duration                    : 1 h 39 min
Bit rate mode               : Constant
Bit rate                    : 128 kb/s
Channel(s)                  : 2 channels
Sampling rate               : 48.0 kHz
Frame rate                  : 41.667 FPS (1152 SPF)
Compression mode            : Lossy
Stream size                 : 91.5 MiB (12%)
Alignment                   : Aligned on interleaves
Interleave, duration        : 42  ms (1.00 video frame)
Interleave, preload duratio : 504  ms
Writing library             : LAME3.99r
Encoding settings           : -m s -V 4 -q 2 -lowpass 17 -b 128


Трекер:  [ 21-Апр-2018 11:24 ]

  

Скачать .torrent

Размер .torrent файла 15 KB


Размер: 744 MB
Хэш (hash) релиза: 855e7cd1979acdae06859260529678be90187b25
Подписка на обновления:

Торренты, похожие на Ну, здравствуй, Оксана Соколова! скачать торрент

Форум Название Автор Размер S L Добавлен
Российские фильмы до 2016 ·· Ну, здравствуй, Оксана Соколова! (Кирилл Васильев) [2018, комедия, WEB-DLRip] Galfimbul 15682887681.46 GB 0 0 1523847250

05:54

16-Апр-18

Российские фильмы 2016-2018 (Новинки русского кино) ·· Ну, здравствуй, Оксана Соколова! (Кирилл Васильев) [2018 г., Комедия, WEB-DL 720p] iTunes Galfimbul 32932346463.07 GB 0 0 1523827214

00:20

16-Апр-18

Российские фильмы 2016-2018 (Новинки русского кино) ·· Ну, здравствуй, Оксана Соколова! (Кирилл Васильев) [2018 г., Комедия, WEB-DLRip] iTunes Galfimbul 15682887681.46 GB 1 6 1523823618

23:20

15-Апр-18

Российские фильмы 2016-2018 (Новинки русского кино) ·· Ну, здравствуй, Оксана Соколова! (Кирилл Васильев) [2018 г., Комедия, WEB-DL 1080p] iTunes Galfimbul 36801412993.43 GB 1 5 1523821310

22:41

15-Апр-18

Российские фильмы 2016-2018 (Новинки русского кино) ·· Ну, здравствуй, Оксана Соколова! (Кирилл Васильев) [2018 г., Комедия, TS 720p] Galfimbul 24249385812.26 GB 0 0 1520762884

13:08

11-Мар-18

Российские фильмы 2016-2018 (Новинки русского кино) ·· Ну, здравствуй, Оксана Соколова! (Кирилл Васильев) [2018 г., Комедия, TS] Galfimbul 14676131841.37 GB 0 0 1520762882

13:08

11-Мар-18

Еще никто не оставлял запись к записи скачать торрент Ну, здравствуй, Оксана Соколова! . Будь первым!

!Обратная связь