Berlin Syndrome | Suche Hörbücher und Hörspiele | The Big Bear P season 09 episode 20

Скачать порно через торрент [Skirtsupgirls Pantyamateur.com] Megapack x141 UnionPeer.org бесплатно онлайн HD качество

Скачать новое порно 2015, 2014 новинки через торрент UnionPeer.org

Порно торрент бесплатно ЮнионПир.орг

Статистика раздачи
Размер:  23.12 GB   |    Зарегистрирован:  2 месяца 29 дней   |    .torrent скачан:  143 раза   |   
Раздают:  1  
   
загрузка...
 
Автор Сообщение

Galfimbul

avatar Galfimbul


[Skirtsupgirls Pantyamateur.com] Megapack x141
Год производства: 2017 г.
Жанр: Solo Fetish
Тип HD видео: 1080p
Качество видео: WEB-DL
Формат видео: WMV
Видео: Windows Media Video 9 1920x1080 25.00fps 8085Kbps
Аудио: Windows Media Audio Stereo 440 kbps, 44 kHz
SU822_Franka.hd.mp4
Format : MPEG-4
Format profile : Base Media / Version 2
Codec ID : mp42 (mp42/mp41)
File size : 636 MiB
Duration : 5mn 59s
Overall bit rate mode : Variable
Overall bit rate : 14.8 Mbps
Encoded date : UTC 2016-11-30 13:50:25
Tagged date : UTC 2016-11-30 13:50:56
©TIM : 00:00:00:00
©TSC : 25
©TSZ : 1

Video
ID : 1
Format : AVC
Format/Info : Advanced Video Codec
Format profile : [email protected]
Format settings, CABAC : Yes
Format settings, ReFrames : 3 frames
Codec ID : avc1
Codec ID/Info : Advanced Video Coding
Duration : 5mn 59s
Bit rate mode : Variable
Bit rate : 14.5 Mbps
Maximum bit rate : 18.0 Mbps
Width : 3 840 pixels
Height : 2 160 pixels
Display aspect ratio : 16:9
Frame rate mode : Constant
Frame rate : 25.000 fps
Standard : PAL
Color space : YUV
Chroma subsampling : 4:2:0
Bit depth : 8 bits
Scan type : Progressive
Bits/(Pixel*Frame) : 0.070
Stream size : 622 MiB (98%)
Language : English
Encoded date : UTC 2016-11-30 13:50:25
Tagged date : UTC 2016-11-30 13:50:25
Color range : Limited
Color primaries : BT.709
Transfer characteristics : BT.709
Matrix coefficients : BT.709

Audio
ID : 2
Format : AAC
Format/Info : Advanced Audio Codec
Format profile : LC
Codec ID : 40
Duration : 5mn 59s
Source duration : 5mn 59s
Bit rate mode : Variable
Bit rate : 317 Kbps
Maximum bit rate : 413 Kbps
Channel(s) : 2 channels
Channel positions : Front: L R
Sampling rate : 48.0 KHz
Frame rate : 46.875 fps (1024 spf)
Compression mode : Lossy
Stream size : 13.6 MiB (2%)
Source stream size : 13.6 MiB (2%)
Language : English
Encoded date : UTC 2016-11-30 13:50:25
Tagged date : UTC 2016-11-30 13:50:25
SU726_TinaKay.wmv
Format : Windows Media
File size : 365 MiB
Duration : 6mn 16s
Overall bit rate mode : Variable
Overall bit rate : 8 122 Kbps
Maximum Overall bit rate : 10.5 Mbps
Encoded date : UTC 2016-01-06 21:13:32.632

Video
ID : 2
Format : VC-1
Format profile : [email protected]
Codec ID : WMV3
Codec ID/Info : Windows Media Video 9
Codec ID/Hint : WMV3
Description of the codec : Windows Media Video 9 - Professional
Duration : 6mn 16s
Bit rate mode : Variable
Bit rate : 8 000 Kbps
Width : 1 920 pixels
Height : 1 080 pixels
Display aspect ratio : 16:9
Frame rate : 25.000 fps
Bit depth : 8 bits
Compression mode : Lossy
Bits/(Pixel*Frame) : 0.154
Stream size : 359 MiB (98%)
Language : English (GB)
NumberOfFrames : 9402

Audio
ID : 1
Format : WMA
Format profile : Pro
Codec ID : 162
Codec ID/Info : Windows Media Audio
Description of the codec : Windows Media Audio 10 Professional - 440 kbps, 44 kHz, 2 channel 24 bit 2-pass VBR
Duration : 6mn 16s
Bit rate mode : Variable
Bit rate : 405 Kbps
Channel(s) : 2 channels
Sampling rate : 44.1 KHz
Bit depth : 24 bits
Stream size : 18.2 MiB (5%)
Language : English (GB)
NumberOfFrames : 925
SU260_Danielle_Maye.wmv
Format : Windows Media
File size : 35.6 MiB
Duration : 2mn 25s
Overall bit rate mode : Variable
Overall bit rate : 2 054 Kbps
Maximum Overall bit rate : 4 066 Kbps
Encoded date : UTC 2011-05-26 09:27:02.500

Video
ID : 2
Format : VC-1
Format profile : [email protected]
Codec ID : WMV3
Codec ID/Info : Windows Media Video 9
Codec ID/Hint : WMV3
Description of the codec : Windows Media Video 9 - Professional
Bit rate mode : Variable
Bit rate : 2 000 Kbps
Width : 960 pixels
Height : 540 pixels
Display aspect ratio : 16:9
Frame rate mode : Variable
Nominal frame rate : 25.000 fps
Color space : YUV
Chroma subsampling : 4:2:0
Bit depth : 8 bits
Scan type : Progressive
Compression mode : Lossy
NumberOfFrames : 3619

Audio
ID : 1
Format : WMA
Format version : Version 2
Codec ID : 161
Codec ID/Info : Windows Media Audio
Description of the codec : Windows Media Audio 9.2 - 48 kbps, 44 kHz, stereo 2-pass VBR
Duration : 2mn 25s
Bit rate mode : Variable
Bit rate : 48.0 Kbps
Channel(s) : 2 channels
Sampling rate : 44.1 KHz
Bit depth : 16 bits
Stream size : 852 KiB (2%)


Трекер:  [ 21-Апр-2018 00:03 ]

  

Скачать .torrent

Размер .torrent файла 124 KB


Размер: 23.12 GB
Хэш (hash) релиза: e86fb8adee0d660bbe04019866671318d4b3d28f

Еще никто не оставлял запись к записи скачать торрент [Skirtsupgirls Pantyamateur.com] Megapack x141 . Будь первым!

!Обратная связь