Pacific Rim Insurreccion TS-Screener | Gry ANDROID | Neil Armstrong

Скачать через торрент Свиной рамэн из Хакаты Hakata Tonkotsu Ramens Фильм бесплатно в хорошем качестве torrent

Скачивайте на UnionPeer.org фильмы через торрент без регистрации. Новинки кино в хорошем качестве через торрент. На UnionPeer.org можно скачать через торрент фильмы 2014 и 2015 годов. Самые новые фильмы.

Скачать торрент Свиной рамэн из Хакаты Hakata Tonkotsu Ramens бесплатно через .torrent фильм мультфильм сериал

Статистика раздачи
Размер:  1.28 GB   |    Зарегистрирован:  1 месяц 5 дней   |    .torrent скачан:  28 раз   |   
Раздают:  1  
   
загрузка...
 
Автор Сообщение

Galfimbul

avatar Galfimbul


Свиной рамэн из Хакаты
Оригинальное название: Hakata Tonkotsu Ramens
Период трансляции: c 12.01.2018 по 30.03.2018
Страна: Япония
Жанр: приключения
Продолжительность: 12 эп. по 24 мин.
Режиссер: Ясуда Кэндзи
Студия:
Перевод: Субтитры от AniPlay.TV
Перевод & редактура: Макошь.
Описание: Аниме повествует о торговой части крупного портового города Фукуока под названием Хаката. С виду это место кажется мирным, но в действительности является пристанищем для разного рода преступников. В Хакате бок о бок живут профессиональные киллеры, информаторы, детективы, мстители, пыточных дел мастера и многие другие не слишком приятные личности. А местная городская легенда гласит, что где-то здесь обитает «убийца профессиональных убийц»...
01. Play Ball
02. Irregular
03. Teamwork
04. Ninth Inning, Two Outs
05. Tryouts
06. Pinch Hitter
07. Lead-off Hitter
08. Trick Play
09. Hit and Run
10. Shortstop
11. Brawl
12. Walk-Off Home Run

Качество видео: WEBRip
Формат: MP4
Видео кодек: H.264
Аудио кодек: AAC
Видео: MPEG4 Video (H264) 480x272 23.976fps 512kbps
Аудио: AAC 44100Hz stereo 128kbps
ormat : MPEG-4
Format profile : Base Media
Codec ID : isom (isom/avc1)
File size : 109 MiB
Duration : 23 min
Overall bit rate mode : Variable
Overall bit rate : 644 kb/s
Encoded date : UTC 2018-04-07 15:05:35
Tagged date : UTC 2018-04-07 15:05:35

Video
ID : 1
Format : AVC
Format/Info : Advanced Video Codec
Format profile : [email protected]
Format settings, CABAC : Yes
Format settings, ReFrames : 2 frames
Codec ID : avc1
Codec ID/Info : Advanced Video Coding
Duration : 23 min
Bit rate : 512 kb/s
Maximum bit rate : 4 303 kb/s
Width : 480 pixels
Height : 272 pixels
Display aspect ratio : 16:9
Frame rate mode : Constant
Frame rate : 23.976 (24000/1001) FPS
Original frame rate : 23.976 (23976/1000) FPS
Color space : YUV
Chroma subsampling : 4:2:0
Bit depth : 8 bits
Scan type : Progressive
Bits/(Pixel*Frame) : 0.164
Stream size : 86.8 MiB (80%)
Writing library : x264 core 65 r999kMod cc51047
Encoding settings : cabac=1 / ref=2 / deblock=1:-2:-1 / analyse=0x1:0x131 / me=umh / subme=7 / psy_rd=1.0:0.0 / mixed_ref=1 / me_range=16 / chroma_me=1 / trellis=2 / 8x8dct=0 / cqm=0 / deadzone=21,11 / chroma_qp_offset=-2 / threads=2 / thread_queue=2 / nr=0 / decimate=0 / mbaff=0 / bframes=3 / b_pyramid=0 / b_adapt=1 / b_bias=0 / direct=3 / wpredb=1 / keyint=250 / keyint_min=25 / scenecut=40(pre) / rc=2pass / bitrate=512 / ratetol=1.0 / qcomp=0.60 / qpmin=10 / qpmax=51 / qpstep=4 / cplxblur=20.0 / qblur=0.5 / ip_ratio=1.40 / pb_ratio=1.30 / aq=1:1.00
Encoded date : UTC 2018-04-07 15:05:35
Tagged date : UTC 2018-04-07 15:05:39

Audio
ID : 2
Format : AAC
Format/Info : Advanced Audio Codec
Format profile : LC
Codec ID : 40
Duration : 23 min
Bit rate mode : Variable
Bit rate : 129 kb/s
Maximum bit rate : 181 kb/s
Channel(s) : 2 channels
Channel positions : Front: L R
Sampling rate : 44.1 kHz
Frame rate : 43.066 FPS (1024 spf)
Compression mode : Lossy
Stream size : 21.8 MiB (20%)
Encoded date : UTC 2018-04-07 15:05:38
Tagged date : UTC 2018-04-07 15:05:39


Трекер:  [ 20-Апр-2018 15:36 ]

  

Скачать .torrent

Размер .torrent файла 14 KB


Размер: 1.28 GB
Хэш (hash) релиза: fa27522bb1343dad27534e01076332e5894882c7
Подписка на обновления:

Еще никто не оставлял запись к записи скачать торрент Свиной рамэн из Хакаты Hakata Tonkotsu Ramens . Будь первым!

!Обратная связь