El corredor del laberinto La cura mortal (2018) descarga gratuita la película completa
Kill la Kill

Скачать через торрент музыку бесплатно без регистрации torrent

Статистика раздачи
Размер:  446 MB   |    Зарегистрирован:  3 дня   |    .torrent скачан:  11 раз   |   
Раздают:  1  
   
загрузка...
 
Автор Сообщение

Galfimbul

avatar Galfimbul


Solar Fields

Ourdom
Жанр..................................Downtempo, Ambient
Страна-производитель диска............Sweden
Год издания...........................2018
Издатель (лейбл)......................Droneform Records
Номер по каталогу.....................DRNFRM012
Аудиокодек............................FLAC (*.flac)
Тип рипа..............................tracks+.cue
Битрейт аудио.........................lossless
Продолжительность.....................01:19:20
Источник (релизер)....................red (Hinaichigo)
Наличие сканов в содержимом раздачи...нет
01. Burning View......................(07:28)
02. Shifting Nature...................(02:40)
03. Into the Sun......................(06:40)
04. Forgiveness.......................(09:20)
05. Mountain King.....................(14:24)
06. Wave Cascade......................(05:04)
07. Moving Lines......................(05:02)
08. A Long Tailed Bird Whispered......(01:37)
09. Joshua's Shop.....................(05:28)
10. A Green Walk......................(01:52)
11. Parallel Universe.................(08:08)
12. The Daylight Carrier..............(06:32)
13. Siren Song of Glass...............(05:04)
X Lossless Decoder version 20170729 (150.3)

XLD extraction logfile from 2018-04-17 10:39:57 +0300

Solar Fields / Ourdom

Used drive : TSSTcorp CDDVDW SH-S222A (revision SB02)Media type : Pressed CD

Ripper mode : XLD Secure RipperDisable audio cache : OK for the drive with a cache less than 1375KiBMake use of C2 pointers : NORead offset correction : 6Max retry count : 99999Gap status : Analyzed, Appended

TOC of the extracted CD Track | Start | Length | Start sector | End sector --------------------------------------------------------- 1 | 00:00:00 | 07:28:00 | 0 | 33599 2 | 07:28:00 | 02:40:00 | 33600 | 45599 3 | 10:08:00 | 06:40:00 | 45600 | 75599 4 | 16:48:00 | 09:20:00 | 75600 | 117599 5 | 26:08:00 | 14:24:00 | 117600 | 182399 6 | 40:32:00 | 05:04:00 | 182400 | 205199 7 | 45:36:00 | 05:02:38 | 205200 | 227887 8 | 50:38:38 | 01:37:38 | 227888 | 235200 9 | 52:16:01 | 05:28:00 | 235201 | 259800 10 | 57:44:01 | 01:52:00 | 259801 | 268200 11 | 59:36:01 | 08:08:00 | 268201 | 304800 12 | 67:44:01 | 06:32:00 | 304801 | 334200 13 | 74:16:01 | 05:04:00 | 334201 | 357000

AccurateRip Summary Disc not found in AccurateRip DB.

All Tracks Album gain : -3.91 dB Peak : 0.985382 Statistics Read error : 0 Jitter error (maybe fixed) : 0 Retry sector count : 0 Damaged sector count : 0

Track 01 Filename : /XLD/Solar Fields - Ourdom (FLAC)/01 Burning View.flac Pre-gap length : 00:02:00

Track gain : -1.55 dB Peak : 0.975311 CRC32 hash (test run) : 83C7DD6C CRC32 hash : 83C7DD6C CRC32 hash (skip zero) : 7FD947DA AccurateRip v1 signature : F0A4381A AccurateRip v2 signature : 7F155ABB ->Track not present in AccurateRip database. Statistics Read error : 0 Jitter error (maybe fixed) : 0 Retry sector count : 0 Damaged sector count : 0

Track 02 Filename : /XLD/Solar Fields - Ourdom (FLAC)/02 Shifting Nature.flac

Track gain : -3.16 dB Peak : 0.975250 CRC32 hash (test run) : 942A3D98 CRC32 hash : 942A3D98 CRC32 hash (skip zero) : 2A7D7A81 AccurateRip v1 signature : DAC51940 AccurateRip v2 signature : FFBA8B9F ->Track not present in AccurateRip database. Statistics Read error : 0 Jitter error (maybe fixed) : 0 Retry sector count : 0 Damaged sector count : 0

Track 03 Filename : /XLD/Solar Fields - Ourdom (FLAC)/03 Into the Sun.flac

Track gain : -5.08 dB Peak : 0.985382 CRC32 hash (test run) : AACA09AC CRC32 hash : AACA09AC CRC32 hash (skip zero) : E643B2AA AccurateRip v1 signature : 2ADDF6B8 AccurateRip v2 signature : 7B0E906F ->Track not present in AccurateRip database. Statistics Read error : 0 Jitter error (maybe fixed) : 0 Retry sector count : 0 Damaged sector count : 0

Track 04 Filename : /XLD/Solar Fields - Ourdom (FLAC)/04 Forgiveness.flac

Track gain : -2.96 dB Peak : 0.975189 CRC32 hash (test run) : 63EB9C70 CRC32 hash : 63EB9C70 CRC32 hash (skip zero) : 89280916 AccurateRip v1 signature : 1928EAC3 AccurateRip v2 signature : BC99FBBB ->Track not present in AccurateRip database. Statistics Read error : 0 Jitter error (maybe fixed) : 0 Retry sector count : 0 Damaged sector count : 0

Track 05 Filename : /XLD/Solar Fields - Ourdom (FLAC)/05 Mountain King.flac

Track gain : -4.02 dB Peak : 0.975281 CRC32 hash (test run) : 900A2E18 CRC32 hash : 900A2E18 CRC32 hash (skip zero) : C0B9F02D AccurateRip v1 signature : 44BA63AF AccurateRip v2 signature : C74C0E8A ->Track not present in AccurateRip database. Statistics Read error : 0 Jitter error (maybe fixed) : 0 Retry sector count : 0 Damaged sector count : 0

Track 06 Filename : /XLD/Solar Fields - Ourdom (FLAC)/06 Wave Cascade.flac

Track gain : -0.34 dB Peak : 0.973022 CRC32 hash (test run) : 75103062 CRC32 hash : 75103062 CRC32 hash (skip zero) : 8244F499 AccurateRip v1 signature : A40025A4 AccurateRip v2 signature : D74BF80B ->Track not present in AccurateRip database. Statistics Read error : 0 Jitter error (maybe fixed) : 0 Retry sector count : 0 Damaged sector count : 0

Track 07 Filename : /XLD/Solar Fields - Ourdom (FLAC)/07 Moving Lines.flac

Track gain : -4.33 dB Peak : 0.975311 CRC32 hash (test run) : 0D07F076 CRC32 hash : 0D07F076 CRC32 hash (skip zero) : 54AE2874 AccurateRip v1 signature : 58BB6F20 AccurateRip v2 signature : 900365E3 ->Track not present in AccurateRip database. Statistics Read error : 0 Jitter error (maybe fixed) : 0 Retry sector count : 0 Damaged sector count : 0

Track 08 Filename : /XLD/Solar Fields - Ourdom (FLAC)/08 A Long Tailed Bird Whispered.flac

Track gain : 0.23 dB Peak : 0.735291 CRC32 hash (test run) : 6E28731C CRC32 hash : 6E28731C CRC32 hash (skip zero) : 63E7D9EE AccurateRip v1 signature : BA435917 AccurateRip v2 signature : C4BB42D2 ->Track not present in AccurateRip database. Statistics Read error : 0 Jitter error (maybe fixed) : 0 Retry sector count : 0 Damaged sector count : 0

Track 09 Filename : /XLD/Solar Fields - Ourdom (FLAC)/09 Joshua's Shop.flac

Track gain : -5.15 dB Peak : 0.975281 CRC32 hash (test run) : DA823374 CRC32 hash : DA823374 CRC32 hash (skip zero) : 04AA0477 AccurateRip v1 signature : B076667A AccurateRip v2 signature : A7AEBE70 ->Track not present in AccurateRip database. Statistics Read error : 0 Jitter error (maybe fixed) : 0 Retry sector count : 0 Damaged sector count : 0

Track 10 Filename : /XLD/Solar Fields - Ourdom (FLAC)/10 A Green Walk.flac

Track gain : 1.12 dB Peak : 0.678894 CRC32 hash (test run) : 10360731 CRC32 hash : 10360731 CRC32 hash (skip zero) : 48E94A56 AccurateRip v1 signature : 9137AF1B AccurateRip v2 signature : 9C8BE4FD ->Track not present in AccurateRip database. Statistics Read error : 0 Jitter error (maybe fixed) : 0 Retry sector count : 0 Damaged sector count : 0

Track 11 Filename : /XLD/Solar Fields - Ourdom (FLAC)/11 Parallel Universe.flac

Track gain : -4.27 dB Peak : 0.975281 CRC32 hash (test run) : 72E14E5D CRC32 hash : 72E14E5D CRC32 hash (skip zero) : 4725E458 AccurateRip v1 signature : 4DC6F2D6 AccurateRip v2 signature : 568FF94B ->Track not present in AccurateRip database. Statistics Read error : 0 Jitter error (maybe fixed) : 0 Retry sector count : 0 Damaged sector count : 0

Track 12 Filename : /XLD/Solar Fields - Ourdom (FLAC)/12 The Daylight Carrier.flac

Track gain : -5.90 dB Peak : 0.984863 CRC32 hash (test run) : 77510C09 CRC32 hash : 77510C09 CRC32 hash (skip zero) : 6A37BB45 AccurateRip v1 signature : 2ED10921 AccurateRip v2 signature : 3A460373 ->Track not present in AccurateRip database. Statistics Read error : 0 Jitter error (maybe fixed) : 0 Retry sector count : 0 Damaged sector count : 0

Track 13 Filename : /XLD/Solar Fields - Ourdom (FLAC)/13 Siren Song of Glass.flac

Track gain : 2.04 dB Peak : 0.651459 CRC32 hash (test run) : 2DC1F470 CRC32 hash : 2DC1F470 CRC32 hash (skip zero) : 45A88EF4 AccurateRip v1 signature : 21F0B816 AccurateRip v2 signature : A64FB234 ->Track not present in AccurateRip database. Statistics Read error : 0 Jitter error (maybe fixed) : 0 Retry sector count : 0 Damaged sector count : 0

No errors occurred

End of status report

-----BEGIN XLD SIGNATURE-----6SR7P2vARK9_LnuGDa_aoLCGaLj6OFbv_TtpD_RFZ6jiqgiM7kR4ohGjMKNwFXq4DMi8GMo91ZgjamDzIT84RDa1qxPytlOBRXwmP6q-----END XLD SIGNATURE-----
TITLE "Ourdom"PERFORMER "Solar Fields"REM GENRE "Electronic"REM DATE "2018"REM DISCID A712980DREM REPLAYGAIN_ALBUM_GAIN -3.91 dBREM REPLAYGAIN_ALBUM_PEAK 0.985382FILE "01 Burning View.flac" WAVE TRACK 01 AUDIO TITLE "Burning View" REM REPLAYGAIN_TRACK_GAIN -1.55 dB REM REPLAYGAIN_TRACK_PEAK 0.975311 INDEX 01 00:00:00FILE "02 Shifting Nature.flac" WAVE TRACK 02 AUDIO TITLE "Shifting Nature" REM REPLAYGAIN_TRACK_GAIN -3.16 dB REM REPLAYGAIN_TRACK_PEAK 0.975250 INDEX 01 00:00:00FILE "03 Into the Sun.flac" WAVE TRACK 03 AUDIO TITLE "Into the Sun" REM REPLAYGAIN_TRACK_GAIN -5.08 dB REM REPLAYGAIN_TRACK_PEAK 0.985382 INDEX 01 00:00:00FILE "04 Forgiveness.flac" WAVE TRACK 04 AUDIO TITLE "Forgiveness" REM REPLAYGAIN_TRACK_GAIN -2.96 dB REM REPLAYGAIN_TRACK_PEAK 0.975189 INDEX 01 00:00:00FILE "05 Mountain King.flac" WAVE TRACK 05 AUDIO TITLE "Mountain King" REM REPLAYGAIN_TRACK_GAIN -4.02 dB REM REPLAYGAIN_TRACK_PEAK 0.975281 INDEX 01 00:00:00FILE "06 Wave Cascade.flac" WAVE TRACK 06 AUDIO TITLE "Wave Cascade" REM REPLAYGAIN_TRACK_GAIN -0.34 dB REM REPLAYGAIN_TRACK_PEAK 0.973022 INDEX 01 00:00:00FILE "07 Moving Lines.flac" WAVE TRACK 07 AUDIO TITLE "Moving Lines" REM REPLAYGAIN_TRACK_GAIN -4.33 dB REM REPLAYGAIN_TRACK_PEAK 0.975311 INDEX 01 00:00:00FILE "08 A Long Tailed Bird Whispered.flac" WAVE TRACK 08 AUDIO TITLE "A Long Tailed Bird Whispered" REM REPLAYGAIN_TRACK_GAIN 0.23 dB REM REPLAYGAIN_TRACK_PEAK 0.735291 INDEX 01 00:00:00FILE "09 Joshua's Shop.flac" WAVE TRACK 09 AUDIO TITLE "Joshua's Shop" REM REPLAYGAIN_TRACK_GAIN -5.15 dB REM REPLAYGAIN_TRACK_PEAK 0.975281 INDEX 01 00:00:00FILE "10 A Green Walk.flac" WAVE TRACK 10 AUDIO TITLE "A Green Walk" REM REPLAYGAIN_TRACK_GAIN 1.12 dB REM REPLAYGAIN_TRACK_PEAK 0.678894 INDEX 01 00:00:00FILE "11 Parallel Universe.flac" WAVE TRACK 11 AUDIO TITLE "Parallel Universe" REM REPLAYGAIN_TRACK_GAIN -4.27 dB REM REPLAYGAIN_TRACK_PEAK 0.975281 INDEX 01 00:00:00FILE "12 The Daylight Carrier.flac" WAVE TRACK 12 AUDIO TITLE "The Daylight Carrier" REM REPLAYGAIN_TRACK_GAIN -5.90 dB REM REPLAYGAIN_TRACK_PEAK 0.984863 INDEX 01 00:00:00FILE "13 Siren Song of Glass.flac" WAVE TRACK 13 AUDIO TITLE "Siren Song of Glass" REM REPLAYGAIN_TRACK_GAIN 2.04 dB REM REPLAYGAIN_TRACK_PEAK 0.651459 INDEX 01 00:00:00
Solar Fields - Ourdom

Трекер:  [ 17-Апр-2018 12:01 ]

  

Скачать .torrent

Размер .torrent файла 36 KB


Размер: 446 MB
Хэш (hash) релиза: 7f58f08a07cfe2ffed4d6dfebf6722c67a6c641d

Еще никто не оставлял запись к записи скачать торрент . Будь первым!

!Обратная связь