Scooby Doo, wo bist du? | Elizabeth Banks | Uncategorized

Скачать через торрент Человек-дьявол: Плач Devilman: Crybaby бесплатно Аниме Все серии на русском torrent

Статистика раздачи
Размер:  3.74 GB   |    Зарегистрирован:  1 месяц 9 дней   |    .torrent скачан:  37 раз   |   
Раздают:  1  
   
загрузка...
 
Автор Сообщение

Galfimbul

avatar Galfimbul


Человек-дьявол: Плач / Devilman: Crybaby
Страна:
Год выпуска: 2018
Жанр: приключения, фэнтези
Тип: ONA
Продолжительность: 10 эп. по 25 мин.
Режиссер: Юаса Масааки
Студия:

Описание:
Акира Фудо рассказывает своему лучшему другу Рёу Асука о том, что в скором времени демоны возродятся и захватят мир. У людей нет никаких шансов в борьбе со сверхъестественной силой, но Рёу видит спасение в слиянии с демонами. Так Акира становится человеком-дьяволом: существом с демоническими способностями и человеческим сердцем.
Доп. информация: AniDB || World Art || MAL
Качество: WEBRip
Тип релиза: Без хардсаба
Формат видео: MKV
Наличие линковки: Нет
Релиз/Автор рипа: [HorribleSubs]
Видео: AVC, 1280x720, 1 690 kb/s, 23.976 FPS, 8 bits
Аудио: E-AC-3, 128 kb/s, 48.0 kHz, 2 channels
Субтитры: ASS, внешние
Перевод: Risens Team
Субтитры: ASS, встроенные
Перевод: Netflix
Субтитры: ASS, встроенные, язык субтитров испанский
Перевод: Netflix
Субтитры: ASS, встроенные, язык субтитров французский
Перевод: Netflix
Субтитры: ASS, встроенные, язык субтитров немецкий
Перевод: Netflix
Субтитры: ASS, встроенные, язык субтитров итальянский
Перевод: Netflix
General
Unique ID                      : 207213226496083316724040359350283542625 (0x9BE3D0D6D6E7765EB34BE40CE8542061)
Complete name                  : G:\L\[HorribleSubs] Devilman Crybaby [720p]\[HorribleSubs] Devilman Crybaby - 01 [720p].mkv
Format                         : Matroska
Format version                 : Version 4 / Version 2
File size                      : 330 MiB
Duration                       : 25 min 41 s
Overall bit rate mode          : Variable
Overall bit rate               : 1 798 kb/s
Encoded date                   : UTC 2018-01-05 08:40:40 / UTC 2017-12-20 01:27:59
Writing application            : mkvmerge v8.3.0 ('Over the Horizon') 32bit
Writing library                : libebml v1.3.1 + libmatroska v1.4.2 / Lavf58.0.0
Attachments                    : OpenSans-Semibold.ttf

Video
ID                             : 1
Format                         : AVC
Format/Info                    : Advanced Video Codec
Format profile                 : [email protected]
Format settings                : CABAC / 3 Ref Frames
Format settings, CABAC         : Yes
Format settings, ReFrames      : 3 frames
Codec ID                       : V_MPEG4/ISO/AVC
Duration                       : 25 min 41 s
Bit rate mode                  : Variable
Bit rate                       : 1 690 kb/s
Maximum bit rate               : 2 535 kb/s
Width                          : 1 280 pixels
Height                         : 720 pixels
Display aspect ratio           : 16:9
Frame rate mode                : Constant
Frame rate                     : 23.976 (24000/1001) FPS
Color space                    : YUV
Chroma subsampling             : 4:2:0
Bit depth                      : 8 bits
Scan type                      : Progressive
Bits/(Pixel*Frame)             : 0.076
Stream size                    : 300 MiB (91%)
Writing library                : x264 core 148
Encoding settings              : cabac=1 / ref=3 / deblock=1:0:0 / analyse=0x1:0x111 / me=umh / subme=10 / psy=1 / psy_rd=1.00:0.00 / mixed_ref=1 / me_range=24 / chroma_me=1 / trellis=2 / 8x8dct=0 / cqm=0 / deadzone=21,11 / fast_pskip=1 / chroma_qp_offset=-2 / threads=8 / lookahead_threads=1 / sliced_threads=0 / nr=0 / decimate=1 / interlaced=0 / bluray_compat=0 / stitchable=1 / constrained_intra=0 / bframes=2 / b_pyramid=0 / b_adapt=2 / b_bias=0 / direct=3 / weightb=1 / open_gop=0 / weightp=2 / keyint=48 / keyint_min=25 / scenecut=0 / intra_refresh=0 / rc_lookahead=48 / rc=2pass / mbtree=1 / bitrate=1690 / ratetol=1.0 / qcomp=0.50 / qpmin=6 / qpmax=51 / qpstep=4 / cplxblur=20.0 / qblur=0.5 / vbv_maxrate=2535 / vbv_bufsize=3380 / nal_hrd=vbr / filler=0 / ip_ratio=1.40 / aq=1:1.00
Default                        : Yes
Forced                         : No
Statistics Tags Issue          : mkvmerge v8.3.0 ('Over the Horizon') 32bit 2018-01-05 08:40:40 / mkvmerge v8.3.0 ('Over the Horizon') 32bit 2018-01-05 08:40:40 / UTC 2017-12-20 01:27:59
FromStats_BitRate              : 1665978
FromStats_Duration             : 00:25:41.832000000
FromStats_FrameCount           : 36967
FromStats_StreamSize           : 321082321

Audio
ID                             : 2
Format                         : E-AC-3
Format/Info                    : Enhanced Audio Coding 3
Codec ID                       : A_EAC3
Duration                       : 25 min 41 s
Bit rate mode                  : Constant
Bit rate                       : 128 kb/s
Channel(s)                     : 2 channels
Channel positions              : Front: L R
Sampling rate                  : 48.0 kHz
Frame rate                     : 187.500 FPS (256 SPF)
Compression mode               : Lossy
Stream size                    : 23.5 MiB (7%)
Language                       : Japanese
Service kind                   : Complete Main
Default                        : Yes
Forced                         : No
Encoded date                   : UTC 2017-12-20 01:27:59
Statistics Tags Issue          : mkvmerge v8.3.0 ('Over the Horizon') 32bit 2018-01-05 08:40:40 / mkvmerge v8.3.0 ('Over the Horizon') 32bit 2018-01-05 08:40:40 / UTC 2017-12-20 01:27:59
FromStats_BitRate              : 128000
FromStats_Duration             : 00:25:41.920000000
FromStats_FrameCount           : 48185
FromStats_StreamSize           : 24670720

Text #1
ID                             : 3
Format                         : ASS
Codec ID                       : S_TEXT/ASS
Codec ID/Info                  : Advanced Sub Station Alpha
Compression mode               : Lossless
Title                          : English
Language                       : English
Default                        : Yes
Forced                         : Yes
Statistics Tags Issue          : mkvmerge v8.3.0 ('Over the Horizon') 32bit 2018-01-05 08:40:40 / mkvmerge v8.3.0 ('Over the Horizon') 32bit 2018-01-05 08:40:40 / UTC 2017-12-20 01:27:59
FromStats_BitRate              : 83
FromStats_Duration             : 00:23:15.070000000
FromStats_FrameCount           : 275
FromStats_StreamSize           : 14630

Text #2
ID                             : 4
Format                         : ASS
Codec ID                       : S_TEXT/ASS
Codec ID/Info                  : Advanced Sub Station Alpha
Compression mode               : Lossless
Title                          : Spanish
Language                       : Spanish
Default                        : No
Forced                         : No
Statistics Tags Issue          : mkvmerge v8.3.0 ('Over the Horizon') 32bit 2018-01-05 08:40:40 / mkvmerge v8.3.0 ('Over the Horizon') 32bit 2018-01-05 08:40:40 / UTC 2017-12-20 01:27:59
FromStats_BitRate              : 81
FromStats_Duration             : 00:25:13.470000000
FromStats_FrameCount           : 276
FromStats_StreamSize           : 15475

Text #3
ID                             : 5
Format                         : ASS
Codec ID                       : S_TEXT/ASS
Codec ID/Info                  : Advanced Sub Station Alpha
Compression mode               : Lossless
Title                          : French
Language                       : French
Default                        : No
Forced                         : No
Statistics Tags Issue          : mkvmerge v8.3.0 ('Over the Horizon') 32bit 2018-01-05 08:40:40 / mkvmerge v8.3.0 ('Over the Horizon') 32bit 2018-01-05 08:40:40 / UTC 2017-12-20 01:27:59
FromStats_BitRate              : 76
FromStats_Duration             : 00:25:17.480000000
FromStats_FrameCount           : 276
FromStats_StreamSize           : 14512

Text #4
ID                             : 6
Format                         : ASS
Codec ID                       : S_TEXT/ASS
Codec ID/Info                  : Advanced Sub Station Alpha
Compression mode               : Lossless
Title                          : German
Language                       : German
Default                        : No
Forced                         : No
Statistics Tags Issue          : mkvmerge v8.3.0 ('Over the Horizon') 32bit 2018-01-05 08:40:40 / mkvmerge v8.3.0 ('Over the Horizon') 32bit 2018-01-05 08:40:40 / UTC 2017-12-20 01:27:59
FromStats_BitRate              : 81
FromStats_Duration             : 00:25:17.430000000
FromStats_FrameCount           : 269
FromStats_StreamSize           : 15509

Text #5
ID                             : 7
Format                         : ASS
Codec ID                       : S_TEXT/ASS
Codec ID/Info                  : Advanced Sub Station Alpha
Compression mode               : Lossless
Title                          : Italian
Language                       : Italian
Default                        : No
Forced                         : No
Statistics Tags Issue          : mkvmerge v8.3.0 ('Over the Horizon') 32bit 2018-01-05 08:40:40 / mkvmerge v8.3.0 ('Over the Horizon') 32bit 2018-01-05 08:40:40 / UTC 2017-12-20 01:27:59
FromStats_BitRate              : 76
FromStats_Duration             : 00:25:17.430000000
FromStats_FrameCount           : 270
FromStats_StreamSize           : 14587
1 I Need You
2 One Hand Is Enough
3 Believe Me!
4 Come, Akira
5 Beautiful Silene
6 Neither Demon nor Human
7 Weak Humans, Wise Demons
8 I Must Know Myself
9 Go to Hell, You Mortals
10 Crybaby


Трекер:  [ 17-Апр-2018 04:01 ]

  

Скачать .torrent

Размер .torrent файла 21 KB


Размер: 3.74 GB
Хэш (hash) релиза: 2b22fa056286198b4eeac37f5944cb999f92ccda
Подписка на обновления:

Еще никто не оставлял запись к записи скачать торрент Человек-дьявол: Плач Devilman: Crybaby . Будь первым!

!Обратная связь