Приключения
December 2017 (1866)

Скачать через торрент Затерянные в космосе Lost in Space Фильм бесплатно в хорошем качестве torrent

Скачивайте на UnionPeer.org фильмы через торрент без регистрации. Новинки кино в хорошем качестве через торрент. На UnionPeer.org можно скачать через торрент фильмы 2014 и 2015 годов. Самые новые фильмы.

Скачать торрент Затерянные в космосе Lost in Space бесплатно через .torrent фильм мультфильм сериал

Статистика раздачи
Размер:  9.81 GB   |    Зарегистрирован:  6 дней   |    .torrent скачан:  95 раз   |   
Раздают:  1  
   
загрузка...
 
Автор Сообщение

Galfimbul

avatar Galfimbul


Затерянные в космосе / Lost in Space

Год выпуска: 2018
Страна: США
Жанр: фантастика
Продолжительность: ~ 00:50:00

Перевод: Профессиональный (двухголосый закадровый) Gears Media

Режиссёры: Тим Соутэм, Дебора Чоу, Элис Тротон

В ролях: Мина Сандвол, Молли Паркер, Тоби Стивенс, Паркер Поузи, Макс Дженкинс, Тейлор Расселл, Игнасио Серричио, Амелия Берстин, Раза Джеффри, Аджай Парих-Фризе

Описание: 2046 год. Космический корабль теряется в космосе и терпит крушение на планете на расстоянии нескольких световых лет от планируемого места назначения. Его обитатели, семья Робинсонов, вынуждены приспособиться и выжить в новых условиях

Ссылка на предыдущие и альтернативные раздачи: http://rutracker.org/forum/tracker.php?g=foreign_se...nm=Lost+in+Space

Сэмпл: http://multi-up.com/1195216

Качество: WEB-DL 720p
Формат: MKV
Видео: X264, 1280x720 at 23.976 fps, ~2000 kbps avg
Аудио1: Russian, AC3, 48 kHz, 2 ch, 384 kbps
Аудио2: English, EAC3, 48 kHz, 6 ch, 448 kbps
Субтитры: нет
Реклама: аудио (два раза, в начале и конце, по 12 сек.)
Format : Matroska
Format version : Version 4 / Version 2
File size : 1.21 GiB
Duration : 1 h 3 min
Overall bit rate mode : Variable
Overall bit rate : 2 719 kb/s
Encoded date : UTC 2018-04-16 18:06:46
Writing application : mkvmerge v22.0.0 ('At The End Of The World') 64-bit
Writing library : libebml v1.3.5 + libmatroska v1.4.8

Video
ID : 1
Format : AVC
Format/Info : Advanced Video Codec
Format profile : [email protected]
Format settings : CABAC / 3 Ref Frames
Format settings, CABAC : Yes
Format settings, ReFrames : 3 frames
Codec ID : V_MPEG4/ISO/AVC
Duration : 1 h 3 min
Bit rate mode : Variable
Bit rate : 1 960 kb/s
Maximum bit rate : 2 940 kb/s
Width : 1 280 pixels
Height : 720 pixels
Display aspect ratio : 16:9
Frame rate mode : Constant
Frame rate : 23.976 (24000/1001) FPS
Color space : YUV
Chroma subsampling : 4:2:0
Bit depth : 8 bits
Scan type : Progressive
Bits/(Pixel*Frame) : 0.089
Stream size : 863 MiB (70%)
Writing library : x264 core 148 r2715 7e75228
Encoding settings : cabac=1 / ref=3 / deblock=1:0:0 / analyse=0x1:0x111 / me=umh / subme=10 / psy=1 / psy_rd=1.00:0.00 / mixed_ref=1 / me_range=24 / chroma_me=1 / trellis=2 / 8x8dct=0 / cqm=0 / deadzone=21,11 / fast_pskip=1 / chroma_qp_offset=-2 / threads=8 / lookahead_threads=1 / sliced_threads=0 / nr=0 / decimate=1 / interlaced=0 / bluray_compat=0 / stitchable=1 / constrained_intra=0 / bframes=2 / b_pyramid=0 / b_adapt=2 / b_bias=0 / direct=3 / weightb=1 / open_gop=0 / weightp=2 / keyint=48 / keyint_min=25 / scenecut=0 / intra_refresh=0 / rc_lookahead=48 / rc=2pass / mbtree=1 / bitrate=1960 / ratetol=1.0 / qcomp=0.50 / qpmin=6 / qpmax=51 / qpstep=4 / cplxblur=20.0 / qblur=0.5 / vbv_maxrate=2940 / vbv_bufsize=3920 / nal_hrd=vbr / filler=0 / ip_ratio=1.40 / aq=1:1.00
Default : Yes
Forced : No

Audio #1
ID : 2
Format : AC-3
Format/Info : Audio Coding 3
Codec ID : A_AC3
Duration : 1 h 2 min
Bit rate mode : Constant
Bit rate : 384 kb/s
Channel(s) : 2 channels
Channel positions : Front: L R
Sampling rate : 48.0 kHz
Frame rate : 31.250 FPS (1536 SPF)
Bit depth : 16 bits
Compression mode : Lossy
Stream size : 172 MiB (14%)
Title : Gears Media
Language : Russian
Service kind : Complete Main
Default : Yes
Forced : Yes

Audio #2
ID : 3
Format : E-AC-3
Format/Info : Enhanced Audio Coding 3
Format profile : E-AC-3+Atmos / E-AC-3
Codec ID : A_EAC3
Duration : 1 h 2 min
Bit rate mode : Constant
Bit rate : 448 kb/s
Channel(s) : 15 objects / 6 channels
Channel positions : 15 objects / Front: L C R, Side: L R, LFE
Sampling rate : 48.0 kHz
Frame rate : 187.500 FPS (256 SPF)
Compression mode : Lossy
Stream size : 201 MiB (16%)
Language : English
Service kind : Complete Main
Default : No
Forced : No
<div class="sp-wrap">
<div class="sp-head folded">Внимание! Раздача ведётся путём добавления новых серий</div>
<div class="sp-body">[b]Внимание! Раздача ведётся путём добавления новых серий; при каждом добавлении создаётся новый торрент. Чтобы начать докачку новой серии, пользователям необходимо сделать следующее:
(1) остановить скачивание,
(2) удалить старый торрент у себя из клиента (старые серии удалять не надо),
(3) скачать новый торрент и запустить его у себя в клиенте вместо старого, при этом указать клиенту путь в старую папку куда и должно происходить скачивание новых серий.

Eсли вы уже удалили старые серии, то предотвратить повторную закачку старых серий можно, отжав галочку в соответствующих местах при запуске нового торрента. По возможности, желательно не удалять старые серии как можно дольше чтобы релизёр не столько продолжал раздавать старые серии, а смог сконцентрироваться на новых.</div>
</div>

Трекер:  [ 17-Апр-2018 03:18 ]

  

Скачать .torrent

Размер .torrent файла 26 KB


Размер: 9.81 GB
Хэш (hash) релиза: 8071b7abcebfd26921cd0eb377f127ff8a6710e0
Подписка на обновления:

Торренты, похожие на Затерянные в космосе Lost in Space скачать торрент

Форум Название Автор Размер S L Добавлен
Зарубежные сериалы ·· Затерянные в космосе / Lost in Space / Сезон: 1 / Серии: 1-10 из 10 (Тим Соутэм, Дебора Чоу, Элис Тротон) [2018, США, фантастика, WEB-DLRip] DVO (Gears Media) + Original Galfimbul 69431615926.47 GB 0 0 1523924287

03:18

17-Апр-18

Зарубежные сериалы ·· Затерянные в космосе / Lost in Space / Сезон: 1 / Серии: 1-10 из 10 (Тим Соутэм) [2018, США, Фантастика, WEBRip] MVO (Baibako) + Original Galfimbul 1164309094410.84 GB 4 0 1523794689

15:18

15-Апр-18

Зарубежные сериалы ·· Затерянные в космосе / Lost in Space / Сезон: 1 / Серии: 1-2 из 10 (Тим Соутэм, Дебора Чоу, Стивен Серджик) [2018, США, Фантастика, WEBRip] MVO (LostFilm) + Original Galfimbul 15717048321.46 GB 0 0 1523908107

22:48

16-Апр-18

Зарубежные сериалы ·· Затерянные в космосе / Lost in Space / Сезон: 1 / Серии: 1-3 из 10 (Тим Соутэм, Дебора Чоу, Элис Тротон) [2018, США, Фантастика, приключения, WEBRip] MVO (Profix Media) + Original Galfimbul 22043258882.05 GB 0 0 1523744290

01:18

15-Апр-18

Зарубежные сериалы ·· Затерянные в космосе (сериал) / Lost in Space / Сезон: 1 / Серии: 24-29 из 29, Сезон: 2 / Серии: 1-10 из 30 (Ирвин Аллен) [1966-1967, США, фантастика, DVDRip-AVC] Original + Rus Sub (kosmoaelita, valera123, alexasa) Galfimbul 1120061006810.43 GB 0 0 1493545801

12:50

30-Апр-17

Еще никто не оставлял запись к записи скачать торрент Затерянные в космосе Lost in Space . Будь первым!

!Обратная связь