Manhunter
Chrisye (2017) WEBRip

Скачать через торрент Затерянные в космосе Lost in Space Фильм бесплатно в хорошем качестве torrent

Скачивайте на UnionPeer.org фильмы через торрент без регистрации. Новинки кино в хорошем качестве через торрент. На UnionPeer.org можно скачать через торрент фильмы 2014 и 2015 годов. Самые новые фильмы.

Скачать торрент Затерянные в космосе Lost in Space бесплатно через .torrent фильм мультфильм сериал

Статистика раздачи
Размер:  6.47 GB   |    Зарегистрирован:  6 дней   |    .torrent скачан:  72 раза   |   
Раздают:  1  
   
загрузка...
 
Автор Сообщение

Galfimbul

avatar Galfimbul


Затерянные в космосе / Lost in Space

Год выпуска: 2018
Страна: США
Жанр: фантастика
Продолжительность: ~ 00:50:00

Перевод: Профессиональный (двухголосый закадровый) Gears Media

Режиссёры: Тим Соутэм, Дебора Чоу, Элис Тротон

В ролях: Мина Сандвол, Молли Паркер, Тоби Стивенс, Паркер Поузи, Макс Дженкинс, Тейлор Расселл, Игнасио Серричио, Амелия Берстин, Раза Джеффри, Аджай Парих-Фризе

Описание: 2046 год. Космический корабль теряется в космосе и терпит крушение на планете на расстоянии нескольких световых лет от планируемого места назначения. Его обитатели, семья Робинсонов, вынуждены приспособиться и выжить в новых условиях

Ссылка на предыдущие и альтернативные раздачи: http://rutracker.org/forum/tracker.php?g=foreign_se...nm=Lost+in+Space

Сэмпл: http://multi-up.com/1195251

Качество: WEB-DLRip
Формат: AVI
Видео: XviD, 720x400 at 23.976 fps, ~1500 kbps avg
Аудио1: Russian, MP3, 48 kHz, 2 ch, 128 kbps
Аудио2: English, MP3, 48 kHz, 2 ch, 128 kbps
Субтитры: нет
Реклама: аудио (два раза, в начале и конце, по 12 сек.)
Format : AVI
Format/Info : Audio Video Interleave
File size : 786 MiB
Duration : 1 h 3 min
Overall bit rate : 1 727 kb/s
Writing application : Lavf56.30.100

Video
ID : 0
Format : xvid
Codec ID : xvid
Duration : 1 h 3 min
Bit rate : 1 454 kb/s
Width : 720 pixels
Height : 400 pixels
Display aspect ratio : 16:9
Frame rate : 23.976 (24000/1001) FPS
Scan type : Progressive
Bits/(Pixel*Frame) : 0.211
Stream size : 661 MiB (84%)

Audio #1
ID : 1
Format : MPEG Audio
Format version : Version 1
Format profile : Layer 3
Format settings : Joint stereo / MS Stereo
Codec ID : 55
Codec ID/Hint : MP3
Duration : 1 h 2 min
Bit rate mode : Constant
Bit rate : 128 kb/s
Channel(s) : 2 channels
Sampling rate : 48.0 kHz
Compression mode : Lossy
Stream size : 57.5 MiB (7%)
Alignment : Aligned on interleaves
Interleave, duration : 24 ms (0.58 video frame)
Interleave, preload duratio : 24 ms
Title : Gears Media
Writing library : LAME3.99.5ЄЄЄЄЄЄЄЄЄЄ

Audio #2
ID : 2
Format : MPEG Audio
Format version : Version 1
Format profile : Layer 3
Format settings : Joint stereo / MS Stereo
Codec ID : 55
Codec ID/Hint : MP3
Duration : 1 h 2 min
Bit rate mode : Constant
Bit rate : 128 kb/s
Channel(s) : 2 channels
Sampling rate : 48.0 kHz
Compression mode : Lossy
Stream size : 57.5 MiB (7%)
Alignment : Aligned on interleaves
Interleave, duration : 24 ms (0.58 video frame)
Interleave, preload duratio : 24 ms
<div class="sp-wrap">
<div class="sp-head folded">Внимание! Раздача ведётся путём добавления новых серий</div>
<div class="sp-body">[b]Внимание! Раздача ведётся путём добавления новых серий; при каждом добавлении создаётся новый торрент. Чтобы начать докачку новой серии, пользователям необходимо сделать следующее:
(1) остановить скачивание,
(2) удалить старый торрент у себя из клиента (старые серии удалять не надо),
(3) скачать новый торрент и запустить его у себя в клиенте вместо старого, при этом указать клиенту путь в старую папку куда и должно происходить скачивание новых серий.

Eсли вы уже удалили старые серии, то предотвратить повторную закачку старых серий можно, отжав галочку в соответствующих местах при запуске нового торрента. По возможности, желательно не удалять старые серии как можно дольше чтобы релизёр не столько продолжал раздавать старые серии, а смог сконцентрироваться на новых.</div>
</div>

Трекер:  [ 17-Апр-2018 03:18 ]

  

Скачать .torrent

Размер .torrent файла 17 KB


Размер: 6.47 GB
Хэш (hash) релиза: 71d07907b13aa0d5b75c09734aa5564fa6fe1aed
Подписка на обновления:

Торренты, похожие на Затерянные в космосе Lost in Space скачать торрент

Форум Название Автор Размер S L Добавлен
Зарубежные сериалы ·· Затерянные в космосе / Lost in Space / Сезон: 1 / Серии: 1-10 из 10 (Тим Соутэм, Дебора Чоу, Элис Тротон) [2018, США, фантастика, WEB-DL 720p] DVO (Gears Media) + Original Galfimbul 105355908769.81 GB 0 0 1523924301

03:18

17-Апр-18

Зарубежные сериалы ·· Затерянные в космосе / Lost in Space / Сезон: 1 / Серии: 1-10 из 10 (Тим Соутэм) [2018, США, Фантастика, WEBRip] MVO (Baibako) + Original Galfimbul 1164309094410.84 GB 4 0 1523794689

15:18

15-Апр-18

Зарубежные сериалы ·· Затерянные в космосе / Lost in Space / Сезон: 1 / Серии: 1-2 из 10 (Тим Соутэм, Дебора Чоу, Стивен Серджик) [2018, США, Фантастика, WEBRip] MVO (LostFilm) + Original Galfimbul 15717048321.46 GB 0 0 1523908107

22:48

16-Апр-18

Зарубежные сериалы ·· Затерянные в космосе / Lost in Space / Сезон: 1 / Серии: 1-3 из 10 (Тим Соутэм, Дебора Чоу, Элис Тротон) [2018, США, Фантастика, приключения, WEBRip] MVO (Profix Media) + Original Galfimbul 22043258882.05 GB 0 0 1523744290

01:18

15-Апр-18

Зарубежные сериалы ·· Затерянные в космосе (сериал) / Lost in Space / Сезон: 1 / Серии: 24-29 из 29, Сезон: 2 / Серии: 1-10 из 30 (Ирвин Аллен) [1966-1967, США, фантастика, DVDRip-AVC] Original + Rus Sub (kosmoaelita, valera123, alexasa) Galfimbul 1120061006810.43 GB 0 0 1493545801

12:50

30-Апр-17

Еще никто не оставлял запись к записи скачать торрент Затерянные в космосе Lost in Space . Будь первым!

!Обратная связь