burningtheflash.com
Download Movie

Скачать через торрент Старые вояки Папочкина армия Фильм бесплатно в хорошем качестве torrent

Скачивайте на UnionPeer.org фильмы через торрент без регистрации. Новинки кино в хорошем качестве через торрент. На UnionPeer.org можно скачать через торрент фильмы 2014 и 2015 годов. Самые новые фильмы.

Скачать торрент Старые вояки Папочкина армия бесплатно через .torrent фильм мультфильм сериал

Статистика раздачи
Размер:  3.92 GB   |    Зарегистрирован:  6 дней   |    .torrent скачан:  34 раза   |   
Раздают:  1  
   
загрузка...
 
Автор Сообщение

Galfimbul

avatar Galfimbul


Старые вояки / Папочкина армия / Dad's Army

Год выпуска: 1970
Страна: Великобритания
Жанр: комедия
Продолжительность: 00:29:00

Перевод: Субтитры (antoneus)

Режиссёр: Дэвид Крофт

В ролях: Артур Лоу, Джон Ле Мезюрье, Клив Данн и др.

Описание: Четвертый сезон классического английского ситкома о взводе Ополчения, под защитой которого во время Второй мировой войны находится небольшой приморский городок.

Ссылка на предыдущие и альтернативные раздачи

Сэмпл

Качество: DVDRip
Формат: AVI
Видео: Xvid, 720x576, 25fps, 999 kbps, 0.096
Аудио: MP3, 48.0 kHz, 2ch, 192 kbps
Субтитры: rus, eng

Реклама отсутствует
General
Complete name : F:\Video\Dad's Army\Season 4\01 - The Big Parade.avi
Format : AVI
Format/Info : Audio Video Interleave
File size : 255 MiB
Duration : 29 min 37 s
Overall bit rate : 1 204 kb/s
Writing application : Lavf57.71.100

Video
ID : 0
Format : MPEG-4 Visual
Format profile : Advanced [email protected]
Format settings : BVOP1
Format settings, BVOP : 1
Format settings, QPel : No
Format settings, GMC : No warppoints
Format settings, Matrix : Default (H.263)
Codec ID : XVID
Codec ID/Hint : XviD
Duration : 29 min 37 s
Bit rate : 999 kb/s
Width : 720 pixels
Height : 576 pixels
Display aspect ratio : 1.294
Frame rate : 25.000 FPS
Standard : PAL
Color space : YUV
Chroma subsampling : 4:2:0
Bit depth : 8 bits
Scan type : Progressive
Original scan type : Interlaced
Original scan order : Top Field First
Compression mode : Lossy
Bits/(Pixel*Frame) : 0.096
Stream size : 212 MiB (83%)
Writing library : XviD 67

Audio
ID : 1
Format : MPEG Audio
Format version : Version 1
Format profile : Layer 3
Format settings : Joint stereo / MS Stereo
Codec ID : 55
Codec ID/Hint : MP3
Duration : 29 min 36 s
Bit rate mode : Constant
Bit rate : 192 kb/s
Channel(s) : 2 channels
Sampling rate : 48.0 kHz
Compression mode : Lossy
Stream size : 40.7 MiB (16%)
Alignment : Aligned on interleaves
Interleave, duration : 24 ms (0.60 video frame)
Writing library : LAME3.100


Трекер:  [ 16-Апр-2018 23:48 ]

  

Скачать .torrent

Размер .torrent файла 23 KB


Размер: 3.92 GB
Хэш (hash) релиза: e56d0ed13d7d7b11517e4209b1140eed70373dc2
Подписка на обновления:

Торренты, похожие на Старые вояки Папочкина армия скачать торрент

Форум Название Автор Размер S L Добавлен
Зарубежные сериалы ·· Старые вояки / Папочкина армия / Dad's Army / Сезон: 4 / Серии: 1-14 из 14 (David Croft, Harold Snoad) [1970, комедия, DVDRip] Original + eng sub + rus sub (antoneus) Galfimbul 49048435344.57 GB 0 0 1456509210

20:53

26-Фев-16

Зарубежные сериалы ·· Старые вояки / Папочкина армия / Dad's Army / Сезон: 4 / Серии: 1-13 из 14 (David Croft, Harold Snoad) [1970, комедия, DVDRip] Original + eng sub + rus sub (antoneus) Galfimbul 42452833213.95 GB 0 0 1454005545

21:25

28-Янв-16

Зарубежные сериалы ·· Старые вояки / Папочкина армия / Dad's Army / Сезон: 4 / Серии: 1-12 из 14 (David Croft, Harold Snoad) [1970, комедия, DVDRip] Original + eng sub + rus sub (antoneus) Galfimbul 38780270103.61 GB 0 0 1453321226

23:20

20-Янв-16

Зарубежные сериалы ·· Старые вояки / Папочкина армия / Dad's Army / Сезон: 4 / Серии: 1-11 из 14 (David Croft, Harold Snoad) [1970, комедия, DVDRip] Original + eng sub + rus sub (antoneus) Galfimbul 35592896443.31 GB 0 0 1452421266

13:21

10-Янв-16

Зарубежные сериалы ·· Старые вояки / Папочкина армия / Dad's Army / Сезон: 4 / Серии: 1-10 из 14 (David Croft, Harold Snoad) [1970, комедия, DVDRip] Original + eng sub + rus sub (antoneus) Galfimbul 32453498553.02 GB 0 0 1451812762

12:19

3-Янв-16

Зарубежные сериалы ·· Старые вояки / Папочкина армия / Dad's Army / Сезон: 4 / Серии: 1-7 из 14 (David Croft, Harold Snoad) [1970, комедия, DVDRip] Original + eng sub + rus sub (antoneus) Galfimbul 22584263492.1 GB 0 0 1439329542

00:45

12-Авг-15

Зарубежные сериалы ·· Старые вояки / Папочкина армия / Dad's Army / Сезон: 4 / Серии: 1-6 из 14 (David Croft, Harold Snoad) [1970, комедия, DVDRip] Original + eng sub + rus sub (antoneus) Galfimbul 19420126681.81 GB 0 0 1438350597

16:49

31-Июл-15

Зарубежные сериалы ·· Старые вояки / Папочкина армия / Dad's Army / Сезон: 4 / Серии: 1-2 из 14 (David Croft, Harold Snoad) [1970, комедия, DVDRip] Original + eng sub + rus sub (antoneus) Galfimbul 640918581611 MB 0 0 1431334898

12:01

11-Май-15

Зарубежные сериалы ·· Старые вояки / Папочкина армия / Dad's Army / Сезон: 3 / Серии: 1-4 из 14 (David Croft, Harold Snoad) [1969, ситком, DVDRip] Original + eng sub + rus sub (antoneus) Galfimbul 12659291121.18 GB 0 0 1422388975

23:02

27-Янв-15

Зарубежные сериалы ·· Старые вояки / Папочкина армия / Dad's Army / Сезон: 4 / Серии: 1 из 14 (David Croft, Harold Snoad) [1970, комедия, DVDRip] Original + eng sub + rus sub (antoneus) Galfimbul 318629853304 MB 0 0 1430944357

23:32

6-Май-15

Еще никто не оставлял запись к записи скачать торрент Старые вояки Папочкина армия . Будь первым!

!Обратная связь