Иностранные | Bracia i siostry / Brothers... | Aadyn Encalarde

Скачать через торрент музыку бесплатно без регистрации torrent

Статистика раздачи
Размер:  491 MB   |    Зарегистрирован:  3 месяца 1 день   |    .torrent скачан:  28 раз   |   
Раздают:  1  
   
загрузка...
 
Автор Сообщение

Galfimbul

avatar Galfimbul


Benza / Benza

Жанр: Psy-Trance, Psychedelic
Носитель: CD
Страна-производитель диска (релиза): Australia
Год издания: 2003
Издатель (лейбл): Demon Tea Recordings
Номер по каталогу: DMT CD12
Страна исполнителя (группы): Australia
Аудиокодек: FLAC (*.flac)
Тип рипа: tracks+.cue
Битрейт аудио: lossless
Продолжительность: 00:77:02
Источник (релизер): собственный рип
Наличие сканов в содержимом раздачи: нет
Треклист:
Cardboard Squares 6:00
2 Flinch 7:22
3 Duality 6:43
4 Bowling For Weirdos 6:11
5 10 Yards 8:15
6 When The Generals Talk (Benza Remix) 6:48
7 Upon Further Inspection 6:24
8 Square Pyramid 7:15
9 The Wolf 8:34
10 Idiot Savant 7:18
11 Wedontneeduaroundherenemore 6:08
Exact Audio Copy V1.0 beta 3 from 29. August 2011

Отчёт EAC об извлечении, выполненном 1. апреля 2018, 22:33

Benza / Benza

Дисковод: ASUS DRW-24D5MT Adapter: 0 ID: 0

Режим чтения : ДостоверностьИспользование точного потока : ДаОтключение кэша аудио : ДаИспользование указателей C2 : Нет

Коррекция смещения при чтении : 6Способность читать области Lead-in и Lead-out : НетЗаполнение пропущенных сэмплов тишиной : ДаУдаление блоков с тишиной в начале и конце : НетПри вычислениях CRC использовались нулевые сэмплы : ДаИнтерфейс : Встроенный Win32-интерфейс для Win NT/2000Обработка зазоров : Добавлено к предыдущему треку

Выходной формат : Пользовательский кодировщикВыбранный битрейт : 768 kBit/sКачество : ВысокийДобавление ID3-тега : НетУтилита сжатия : C:\Program Files (x86)\Exact Audio Copy\FLAC\FLAC.EXEДополнительные параметры : -6 -V -T "ARTIST=%artist%" -T "TITLE=%title%" -T "ALBUM=%albumtitle%" -T "DATE=%year%" -T "TRACKNUMBER=%tracknr%" -T "GENRE=%genre%" -T "COMMENT=%comment%" -T "BAND=%albuminterpret%" -T "ALBUMARTIST=%albuminterpret%" -T "COMPOSER=%composer%" %haslyrics%--tag-from-file=LYRICS="%lyricsfile%"%haslyrics% -T "DISCNUMBER=%cdnumber%" -T "TOTALDISCS=%totalcds%" -T "TOTALTRACKS=%numtracks%" %hascover%--picture="%coverfile%"%hascover% %source% -o %dest%

TOC извлечённого CD

Трек | Старт | Длительность | Начальный сектор | Конечный сектор --------------------------------------------------------------------- 1 | 0:00.00 | 6:00.32 | 0 | 27031 2 | 6:00.32 | 7:22.10 | 27032 | 60191 3 | 13:22.42 | 6:43.70 | 60192 | 90486 4 | 20:06.37 | 6:11.05 | 90487 | 118316 5 | 26:17.42 | 8:15.38 | 118317 | 155479 6 | 34:33.05 | 6:48.37 | 155480 | 186116 7 | 41:21.42 | 6:24.48 | 186117 | 214964 8 | 47:46.15 | 7:15.57 | 214965 | 247646 9 | 55:01.72 | 8:34.08 | 247647 | 286204 10 | 63:36.05 | 7:18.40 | 286205 | 319094 11 | 70:54.45 | 6:08.30 | 319095 | 346724

Трек 1

Имя файла E:\stino_files\converted\Benza - Benza (2003) FLAC\01. Benza - Cardboard Squares.wav

Длина предзазора 0:00:02.00

Пиковый уровень 100.0 % Скорость извлечения 1.2 X Качество трека 100.0 % CRC теста B80B8000 CRC копии B80B8000 Точное извлечение (достоверность 1) [107C5FD1] (AR v1) Копирование... OK

Трек 2

Имя файла E:\stino_files\converted\Benza - Benza (2003) FLAC\02. Benza - Flinch.wav

Пиковый уровень 98.8 % Скорость извлечения 1.4 X Качество трека 100.0 % CRC теста 985BF30E CRC копии 985BF30E Точное извлечение (достоверность 1) [0E8671A1] (AR v1) Копирование... OK

Трек 3

Имя файла E:\stino_files\converted\Benza - Benza (2003) FLAC\03. Benza - Duality.wav

Пиковый уровень 98.9 % Скорость извлечения 1.6 X Качество трека 100.0 % CRC теста F957AA3B CRC копии F957AA3B Точное извлечение (достоверность 1) [D651D019] (AR v1) Копирование... OK

Трек 4

Имя файла E:\stino_files\converted\Benza - Benza (2003) FLAC\04. Benza - Bowling for Weirdos.wav

Пиковый уровень 98.8 % Скорость извлечения 1.8 X Качество трека 100.0 % CRC теста 7590332C CRC копии 7590332C Точное извлечение (достоверность 1) [D42AA6EF] (AR v1) Копирование... OK

Трек 5

Имя файла E:\stino_files\converted\Benza - Benza (2003) FLAC\05. Benza - 10 Yards.wav

Пиковый уровень 98.8 % Скорость извлечения 2.0 X Качество трека 100.0 % CRC теста 2BCED61A CRC копии 2BCED61A Точное извлечение (достоверность 1) [C8104A97] (AR v1) Копирование... OK

Трек 6

Имя файла E:\stino_files\converted\Benza - Benza (2003) FLAC\06. Benza - When The Generals Talk (Benza rmx).wav

Пиковый уровень 100.0 % Скорость извлечения 2.1 X Качество трека 100.0 % CRC теста 3C265D68 CRC копии 3C265D68 Точное извлечение (достоверность 1) [5879B154] (AR v1) Копирование... OK

Трек 7

Имя файла E:\stino_files\converted\Benza - Benza (2003) FLAC\07. Benza - Upon Further Inspection.wav

Пиковый уровень 98.8 % Скорость извлечения 2.2 X Качество трека 100.0 % CRC теста A364DB00 CRC копии A364DB00 Точное извлечение (достоверность 1) [D2677542] (AR v1) Копирование... OK

Трек 8

Имя файла E:\stino_files\converted\Benza - Benza (2003) FLAC\08. Benza - Square Pyramid.wav

Пиковый уровень 98.8 % Скорость извлечения 2.3 X Качество трека 100.0 % CRC теста 4CAD734E CRC копии 4CAD734E Точное извлечение (достоверность 1) [B247F2F4] (AR v1) Копирование... OK

Трек 9

Имя файла E:\stino_files\converted\Benza - Benza (2003) FLAC\09. Benza - The Wolf.wav

Пиковый уровень 100.0 % Скорость извлечения 2.5 X Качество трека 100.0 % CRC теста EF2EFD81 CRC копии EF2EFD81 Точное извлечение (достоверность 1) [00CB14C6] (AR v1) Копирование... OK

Трек 10

Имя файла E:\stino_files\converted\Benza - Benza (2003) FLAC\10. Benza - Idiot Savant.wav

Пиковый уровень 98.9 % Скорость извлечения 2.6 X Качество трека 100.0 % CRC теста 1181BC0C CRC копии 1181BC0C Точное извлечение (достоверность 1) [1490B7CA] (AR v1) Копирование... OK

Трек 11

Имя файла E:\stino_files\converted\Benza - Benza (2003) FLAC\11. Benza - Wedontneeduaroundherenemore.wav

Пиковый уровень 98.8 % Скорость извлечения 2.6 X Качество трека 100.0 % CRC теста FE8DDFBD CRC копии FE8DDFBD Точное извлечение (достоверность 1) [3E3D0CCD] (AR v1) Копирование... OK

Все треки извлечены точно

Ошибок не произошло

Конец отчёта

==== Контрольная сумма отчёта 211E27C8900969A2831DDD78D1CA8AB6DE3C190A64291EAE6B2A6AAE21F4913A ====
REM GENRE PsychedelicREM DATE 2003REM DISCID 9F120F0BREM COMMENT "ExactAudioCopy v1.0b3"PERFORMER "Benza"TITLE "Benza"FILE "01. Benza - Cardboard Squares.wav" WAVE TRACK 01 AUDIO TITLE "Cardboard Squares" PERFORMER "Benza" ISRC PPPPP0000000 INDEX 01 00:00:00FILE "02. Benza - Flinch.wav" WAVE TRACK 02 AUDIO TITLE "Flinch" PERFORMER "Benza" ISRC PPPPP0000000 INDEX 01 00:00:00FILE "03. Benza - Duality.wav" WAVE TRACK 03 AUDIO TITLE "Duality" PERFORMER "Benza" ISRC PPPPP0000000 INDEX 01 00:00:00FILE "04. Benza - Bowling for Weirdos.wav" WAVE TRACK 04 AUDIO TITLE "Bowling for Weirdos" PERFORMER "Benza" ISRC PPPPP0000000 INDEX 01 00:00:00FILE "05. Benza - 10 Yards.wav" WAVE TRACK 05 AUDIO TITLE "10 Yards" PERFORMER "Benza" ISRC PPPPP0000000 INDEX 01 00:00:00FILE "06. Benza - When The Generals Talk (Benza rmx).wav" WAVE TRACK 06 AUDIO TITLE "When The Generals Talk (Benza rmx)" PERFORMER "Benza" ISRC PPPPP0000000 INDEX 01 00:00:00FILE "07. Benza - Upon Further Inspection.wav" WAVE TRACK 07 AUDIO TITLE "Upon Further Inspection" PERFORMER "Benza" ISRC PPPPP0000000 INDEX 01 00:00:00FILE "08. Benza - Square Pyramid.wav" WAVE TRACK 08 AUDIO TITLE "Square Pyramid" PERFORMER "Benza" ISRC PPPPP0000000 INDEX 01 00:00:00FILE "09. Benza - The Wolf.wav" WAVE TRACK 09 AUDIO TITLE "The Wolf" PERFORMER "Benza" ISRC PPPPP0000000 INDEX 01 00:00:00FILE "10. Benza - Idiot Savant.wav" WAVE TRACK 10 AUDIO TITLE "Idiot Savant" PERFORMER "Benza" ISRC PPPPP0000000 INDEX 01 00:00:00FILE "11. Benza - Wedontneeduaroundherenemore.wav" WAVE TRACK 11 AUDIO TITLE "Wedontneeduaroundherenemore" PERFORMER "Benza" ISRC PPPPP0000000 INDEX 01 00:00:00
Benza. Настоящее имя: Ben Rynderman. Австралия.


Трекер:  [ 16-Апр-2018 23:30 ]

  

Скачать .torrent

Размер .torrent файла 20 KB


Размер: 491 MB
Хэш (hash) релиза: 6bf2693e0fa2b24b2d69605ce611714d757a8851

Еще никто не оставлял запись к записи скачать торрент . Будь первым!

!Обратная связь