Evangelion 3.33.0 You Can (Not) Redo | 720p | BDRip | English Subbed | Anicoders | x265
Cień anioła / Dark Angel (2...

Скачать через торрент Затерянные в космосе Lost in Space Фильм бесплатно в хорошем качестве torrent

Скачивайте на UnionPeer.org фильмы через торрент без регистрации. Новинки кино в хорошем качестве через торрент. На UnionPeer.org можно скачать через торрент фильмы 2014 и 2015 годов. Самые новые фильмы.

Скачать торрент Затерянные в космосе Lost in Space бесплатно через .torrent фильм мультфильм сериал

Статистика раздачи
Размер:  1.46 GB   |    Зарегистрирован:  1 день 22 часа   |    .torrent скачан:  54 раза   |   
Раздают:  1  
   
загрузка...
 
Автор Сообщение

Galfimbul

avatar Galfimbul


Затерянные в космосе / Lost in Space
Год выпуска: 2018
Страна: США
Жанр: Фантастика
Продолжительность: ~01:00:00
Перевод: Профессиональный (многоголосый закадровый) | LostFilm
Режиссёр: Тим Соутэм, Дебора Чоу, Стивен Серджик
В ролях: Мина Сандвол, Молли Паркер, Тоби Стивенс, Паркер Поузи, Макс Дженкинс, Тейлор Расселл, Игнасио Серричио, Амелия Берстин, Раза Джеффри, Аджай Парих-Фризе
Описание: 2046 год. Космический корабль теряется в космосе и терпит крушение на планете на расстоянии нескольких световых лет от планируемого места назначения. Его обитатели, семья Робинсонов, вынуждены приспособиться и выжить в новых условиях.


Качество: WEBRip
Формат: AVI
Видео: XviD, 704x352, 23.976 fps, ~1500 kbps
Аудио #1: 48 kHz, MPEG Layer 3, 2 ch, ~128.00 kbps | Rus
Аудио #2: 48 kHz, MPEG Layer 3, 2 ch, ~128.00 kbps | Eng
Субтитры: нет
Реклама: Отсутствует
Format : AVI
Format/Info : Audio Video Interleave
File size : 804 MiB
Duration : 1 h 3 min
Overall bit rate : 1 768 kb/s
Writing application : VirtualDubMod 1.5.10.2 (build 2540/release)

Video
ID : 0
Format : MPEG-4 Visual
Format profile : Advanced [email protected]
Format settings : BVOP1 / Custom Matrix
Format settings, BVOP : 1
Format settings, QPel : No
Format settings, GMC : No warppoints
Format settings, Matrix : Custom
Codec ID : XVID
Codec ID/Hint : XviD
Duration : 1 h 3 min
Bit rate : 1 500 kb/s
Width : 704 pixels
Height : 352 pixels
Display aspect ratio : 2.000
Frame rate : 23.976 (24000/1001) FPS
Color space : YUV
Chroma subsampling : 4:2:0
Bit depth : 8 bits
Scan type : Progressive
Compression mode : Lossy
Bits/(Pixel*Frame) : 0.252
Stream size : 682 MiB (85%)
Writing library : XviD 73

Audio #1
ID : 1
Format : MPEG Audio
Format version : Version 1
Format profile : Layer 3
Format settings : Joint stereo / MS Stereo
Codec ID : 55
Codec ID/Hint : MP3
Duration : 1 h 3 min
Bit rate mode : Constant
Bit rate : 128 kb/s
Channel(s) : 2 channels
Sampling rate : 48.0 kHz
Compression mode : Lossy
Delay relative to video : 11 ms
Stream size : 58.2 MiB (7%)
Alignment : Split accross interleaves
Interleave, duration : 42 ms (1.00 video frame)
Interleave, preload duratio : 500 ms

Audio #2
ID : 2
Format : MPEG Audio
Format version : Version 1
Format profile : Layer 3
Format settings : Joint stereo / MS Stereo
Codec ID : 55
Codec ID/Hint : MP3
Duration : 1 h 2 min
Bit rate mode : Constant
Bit rate : 128 kb/s
Channel(s) : 2 channels
Sampling rate : 48.0 kHz
Compression mode : Lossy
Delay relative to video : 11 ms
Stream size : 57.4 MiB (7%)
Alignment : Split accross interleaves
Interleave, duration : 42 ms (1.01 video frame)
Interleave, preload duratio : 500 ms


Трекер:  [ 21-Апр-2018 15:59 ]

  

Скачать .torrent

Размер .torrent файла 15 KB


Размер: 1.46 GB
Хэш (hash) релиза: 424794be0fb236b1769e008718e78a695b9e9409
Подписка на обновления:

Торренты, похожие на Затерянные в космосе Lost in Space скачать торрент

Форум Название Автор Размер S L Добавлен
Зарубежные сериалы ·· Затерянные в космосе (сериал) / Lost in Space / Сезон: 1 / Серии: 24-29 из 29, Сезон: 2 / Серии: 1-10 из 30 (Ирвин Аллен) [1966-1967, США, фантастика, DVDRip-AVC] Original + Rus Sub (kosmoaelita, valera123, alexasa) Galfimbul 1120061006810.43 GB 0 0 1493545801

12:50

30-Апр-17

bot

Раздача обновлена!
Перекачайте торрент-файл.

Хотите добавить комментарий к записи скачать торрент Затерянные в космосе Lost in Space

!Обратная связь