1 Night 2 Days Season 3 | Aime Courtois | Viu Resmi Luncurkan Serial Drama Sunshine

Скачать через торрент Бедные родственники Фильм бесплатно в хорошем качестве torrent

Скачивайте на UnionPeer.org фильмы через торрент без регистрации. Новинки кино в хорошем качестве через торрент. На UnionPeer.org можно скачать через торрент фильмы 2014 и 2015 годов. Самые новые фильмы.

Скачать торрент Бедные родственники бесплатно через .torrent фильм мультфильм сериал

Статистика раздачи
Размер:  4 GB   |    Зарегистрирован:  3 месяца 4 дня   |    .torrent скачан:  42 раза   |   
Раздают:  1  
   
загрузка...
 
Автор Сообщение

Galfimbul

avatar Galfimbul


Бедные родственники

Страна: Россия, Франция
Студия: arte France Cinéma, Canal+ [fr], Catherine Dussart Productions (CDP), Оникс
Жанр: трагикомедия
Год выпуска: 2005
Продолжительность: 01:46:38

Перевод: Не требуется
Субтитры: нет
Оригинальная аудиодорожка: русский

Режиссер: Павел Лунгин

В ролях: Константин Хабенский, Леонид Каневский, Сергей Гармаш, Наталья Коляканова, Эстер Горентен, Отто Таузиг, Миглен Мирчев, Грегуар Лепренс-Ринге, Марина Голуб, Даниил Спиваковский, Александр Ильин, Петр Солдатов, Елена Галибина, Евгения Дмитриева, Константин Воробьёв, Михаил Парыгин, Марианна Шульц, Владимир Сальников, Филипп Иванченко, Игорь Жуков, Екатерина Кибовская, Екатерина Барымова, Варвара Никитина

Описание: Действие фильма происходит в наши дни в маленьком южном городке, на территории бывшего СССР. Главный герой — Эдик Летов — помогает людям разыскивать родственников. Находит он их в Канаде, Израиле, Швейцарии. Для Эдика это — бизнес, и бизнес безотказный. Если настоящие родственники не находятся, Эдик организует "замену". И вроде всё в его маленькой фирме идет хорошо. Но так как "заменяющие" - люди одинокие, то на своих зарубежных гостей они изливают столько любви и тепла, что те и подумать не могут о подмене — и проникаются ответным чувством… Сэмпл: Сэмпл

Тип релиза: WEBRip 1080p
Контейнер: MKV

Видео: MPEG4 Video (H264) 1920x1080 25fps 5120 kbps
Аудио: AAC 48000Hz stereo 256 kbps
eneral
Complete name : Бедные Родственники (2005) WEB-DL 1080p by MIF.mp4
Format : MPEG-4
Format profile : Base Media
Codec ID : isom (isom/iso2/avc1/mp41)
File size : 4.00 GiB
Duration : 1 h 46 min
Overall bit rate : 5 373 kb/s
Writing application : Lavf55.33.100

Video
ID : 1
Format : AVC
Format/Info : Advanced Video Codec
Format profile : [email protected]
Format settings, CABAC : Yes
Format settings, ReFrames : 4 frames
Codec ID : avc1
Codec ID/Info : Advanced Video Coding
Duration : 1 h 46 min
Bit rate : 5 120 kb/s
Width : 1 920 pixels
Height : 1 080 pixels
Display aspect ratio : 16:9
Frame rate mode : Constant
Frame rate : 25.000 FPS
Color space : YUV
Chroma subsampling : 4:2:0
Bit depth : 8 bits
Scan type : Progressive
Bits/(Pixel*Frame) : 0.099
Stream size : 3.81 GiB (95%)
Writing library : x264 core 142
Encoding settings : cabac=1 / ref=3 / deblock=1:0:0 / analyse=0x3:0x113 / me=hex / subme=7 / psy=1 / psy_rd=1.00:0.00 / mixed_ref=1 / me_range=16 / chroma_me=1 / trellis=1 / 8x8dct=1 / cqm=0 / deadzone=21,11 / fast_pskip=1 / chroma_qp_offset=-2 / threads=48 / lookahead_threads=8 / sliced_threads=0 / nr=0 / decimate=1 / interlaced=0 / bluray_compat=0 / constrained_intra=0 / bframes=6 / b_pyramid=2 / b_adapt=1 / b_bias=0 / direct=1 / weightb=1 / open_gop=0 / weightp=2 / keyint=50 / keyint_min=26 / scenecut=0 / intra_refresh=0 / rc_lookahead=40 / rc=2pass / mbtree=1 / bitrate=5120 / ratetol=1.0 / qcomp=0.60 / qpmin=0 / qpmax=69 / qpstep=4 / cplxblur=20.0 / qblur=0.5 / vbv_maxrate=7680 / vbv_bufsize=20480 / nal_hrd=none / filler=0 / ip_ratio=1.40 / aq=1:1.00
Language : English
Tagged date : UTC 2018-03-19 19:42:53

Audio
ID : 2
Format : AAC
Format/Info : Advanced Audio Codec
Format profile : LC
Codec ID : 40
Duration : 1 h 46 min
Duration_LastFrame : 43 ms
Bit rate mode : Constant
Bit rate : 256 kb/s
Channel(s) : 2 channels
Channel positions : Front: L R
Sampling rate : 48.0 kHz
Frame rate : 46.875 FPS (1024 spf)
Compression mode : Lossy
Stream size : 195 MiB (5%)
Language : English
Default : Yes
Alternate group : 1
Tagged date : UTC 2018-03-19 19:42:53


Трекер:  [ 16-Апр-2018 22:01 ]

  

Скачать .torrent

Размер .torrent файла 20 KB


Размер: 4 GB
Хэш (hash) релиза: 2a615ddbb162f0ddcc867f1f3a8849fe7f063021
Подписка на обновления:

Еще никто не оставлял запись к записи скачать торрент Бедные родственники . Будь первым!

!Обратная связь