#296. Chapter 296
Balada Pizdei de George Topîrceanu cu Dodo Fără perdea

Скачать через торрент Сирена Siren Фильм бесплатно в хорошем качестве torrent

Скачивайте на UnionPeer.org фильмы через торрент без регистрации. Новинки кино в хорошем качестве через торрент. На UnionPeer.org можно скачать через торрент фильмы 2014 и 2015 годов. Самые новые фильмы.

Скачать торрент Сирена Siren бесплатно через .torrent фильм мультфильм сериал

Статистика раздачи
Размер:  4.45 GB   |    Зарегистрирован:  6 дней   |    .torrent скачан:  29 раз   |   
Раздают:  1  
   
загрузка...
 
Автор Сообщение

Galfimbul

avatar Galfimbul


Сирена / Siren

Год выпуска: 2018
Страна: США,Amblin Television, Stage 29 Productions, CBS Television Studios
Жанр: Драма
Продолжительность: ~ 00:45:00
Перевод: Профессиональный (многоголосый закадровый) | Jaskier
Режиссёр: Ник Копус, Джей Карас, Скотт Чарльз Стюарт
В ролях:Элайн Пауэлл, Фола Эванс-Экинбола, Сибонгиле Мламбо, Йен Вердён, Рина Оуэн, Рон Юань, Тэмми Гиллис, Кертис Льюм, Чад Рук, Энтони Харрисон
Описание: По легенде возле Бристольской бухты когда-то жили русалки. Однажды здесь появляется таинственная зеленоглазая девушка. Кому-то встреча с ней принесет смерть, а для кого-то она приоткроет старые тайны на первый взгляд безобидного провинциального города.

Качество: WEBRip 720p
Формат: MKV
Видео: 1280x720 (16:9) | X264 | ~2858 kbps | 23.976 fps
Аудио 1: AC3, 48,0 КГц, 6 ch, 384 kbps - [RUS]
Аудио 2: AC3, 48,0 КГц, 6 ch, 384 kbps - [ENG]
Реклама: Присутствует звуковая (два раза в начале и конце по 10 сек.)
Ссылка на предыдущие и альтернативные раздачи
Переведено и озвучено: студией Jaskier
Общее
Уникальный идентификатор                 : 169377220159983073695693069625313742660 (0x7F6CDDB381EFD3B994ECE931308C4F44)
Полное имя                               : F:\Jaskier\Siren Season 1 (WEBRip l 720p l Jaskier)\Siren.2018.S01E01.WEBRip.720p.Jaskier.mkv
Формат                                   : Matroska
Версия формата                           : Version 4 / Version 2
Размер файла                             : 1,16 Гбайт
Продолжительность                        : 45 м. 57 с.
Режим общего битрейта                    : Переменный
Общий поток                              : 3628 Кбит/сек
Дата кодирования                         : UTC 2018-04-16 17:11:47
Программа кодирования                    : mkvmerge v19.0.0 ('Brave Captain') 64-bit
Библиотека кодирования                   : libebml v1.3.5 + libmatroska v1.4.8

Видео
Идентификатор                            : 1
Формат                                   : AVC
Формат/Информация                        : Advanced Video Codec
Профиль формата                          : [email protected]
Настройки формата                        : CABAC / 5 Ref Frames
Параметр CABAC формата                   : Да
Параметр RefFrames формата               : 5 кадров
Идентификатор кодека                     : V_MPEG4/ISO/AVC
Продолжительность                        : 45 м. 57 с.
Вид битрейта                             : Переменный
Битрейт                                  : 2858 Кбит/сек
Максимальный битрейт                     : 4500 Кбит/сек
Ширина                                   : 1280 пикселей
Высота                                   : 720 пикселей
Соотношение сторон                       : 16:9
Режим частоты кадров                     : Постоянный
Частота кадров                           : 23,976 (24000/1001) кадра/сек
Цветовое пространство                    : YUV
Субдискретизация насыщенности            : 4:2:0
Битовая глубина                          : 8 бит
Тип развёртки                            : Прогрессивная
Бит/(Пиксели*Кадры)                      : 0.129
Размер потока                            : 940 Мбайт (79%)
Язык                                     : English
Default                                  : Да
Forced                                   : Нет
Цветовой диапазон                        : Limited
Основные цвета                           : BT.709
Характеристики трансфера                 : BT.709
Коэффициенты матрицы                     : BT.709

Аудио #1
Идентификатор                            : 2
Формат                                   : AC-3
Формат/Информация                        : Audio Coding 3
Идентификатор кодека                     : A_AC3
Продолжительность                        : 45 м. 57 с.
Вид битрейта                             : Постоянный
Битрейт                                  : 384 Кбит/сек
Каналы                                   : 6 каналов
Расположение каналов                     : Front: L C R, Side: L R, LFE
Частота                                  : 48,0 КГц
Частота кадров                           : 31,250 кадров/сек (1536 SPF)
Битовая глубина                          : 16 бит
Метод сжатия                             : С потерями
Размер потока                            : 126 Мбайт (11%)
Заголовок                                : Jaskier
Язык                                     : Russian
ServiceKind/String                       : Complete Main
Default                                  : Да
Forced                                   : Нет

Аудио #2
Идентификатор                            : 3
Формат                                   : AC-3
Формат/Информация                        : Audio Coding 3
Идентификатор кодека                     : A_AC3
Продолжительность                        : 45 м. 57 с.
Вид битрейта                             : Постоянный
Битрейт                                  : 384 Кбит/сек
Каналы                                   : 6 каналов
Расположение каналов                     : Front: L C R, Side: L R, LFE
Частота                                  : 48,0 КГц
Частота кадров                           : 31,250 кадров/сек (1536 SPF)
Битовая глубина                          : 16 бит
Метод сжатия                             : С потерями
Размер потока                            : 126 Мбайт (11%)
Язык                                     : English
ServiceKind/String                       : Complete Main
Default                                  : Нет
Forced                                   : Нет
Когда раздача ведётся путём добавления новых серий, при каждом добавлении создётся новый торрент. Чтобы начать докачку новой серии, пользователям необходимо сделать следующее:
(1) остановить скачивание,
(2) удалить старый торрент у себя из клиента (старые серии удалять не надо),
(3) скачать новый торрент и запустить его у себя в клиенте вместо старого, при этом указать клиенту путь в старую папку, куда и должно происходить скачивание новых серий.
Ваш клиент при этом должен произвести хеширование (проверку) старой папки (если не производит сам - помогите ему сделать это), и будет докачивать только те серии, которых у вас ещё нет. Старые серии при этом не удаляются, а продолжают раздаваться!
Eсли вы уже удалили старые серии, то предотвратить повторную закачку старых серий можно, отжав галочку в соответсвующих местах при запуске нового торрента. По возможности, желательно не удалять старые серии как можно дольше, чтобы релизёр не столько продолжал раздавать старые серии, а смог сконцентрироваться на новых.



Трекер:  [ 16-Апр-2018 21:18 ]

  

Скачать .torrent

Размер .torrent файла 23 KB


Размер: 4.45 GB
Хэш (hash) релиза: 91430e883a10ba9c826e13d7e7ef98e5e7bff163
Подписка на обновления:

Торренты, похожие на Сирена Siren скачать торрент

Форум Название Автор Размер S L Добавлен
Зарубежные сериалы ·· Сирена / Siren / Сезон: 1 / Серии: 1-4 из 10 (Ник Копус, Джей Карас, Скотт Чарльз Стюарт) [2018, США, Фэнтези, драма, WEBRip] MVO (Jaskier) + Original Galfimbul 22612664322.11 GB 2 0 1523902690

21:18

16-Апр-18

Зарубежные сериалы ·· Сирена / Siren / Сезон: 1 / Серии: 1-4 из 10 (Ник Копус, Стив Эделсон, Джон Бэдэм) [2018, США, фэнтези, драма, WEB-DL 720p] DVO (Gears Media) + Original Galfimbul 49806517564.64 GB 0 0 1523105319

15:48

7-Апр-18

Зарубежные сериалы ·· Сирена / Siren / Сезон: 1 / Серии: 1-4 из 10 (Ник Копус, Стив Эделсон, Джон Бэдэм) [2018, США, фэнтези, драма, WEB-DLRip] DVO (Gears Media) + Original Galfimbul 21668482702.02 GB 0 0 1523105291

15:48

7-Апр-18

Зарубежные сериалы ·· Сирена / Siren / Сезон: 1 / Серии: 1-4 из 10 (Ник Копус) [2018, США, фэнтези, драма, WEBRip 720p] MVO (NewStudio) + Original Galfimbul 54394644105.07 GB 0 0 1522874901

23:48

4-Апр-18

Зарубежные сериалы ·· Сирена / Siren / Сезон: 1 / Серии: 1-4 из 10 (Ник Копус, Джей Карас, Скотт Чарльз Стюарт) [2018, США, фэнтези, драма, WEB-DLRip] MVO (NewStudio) + Original Galfimbul 22612664322.11 GB 0 0 1522873088

23:18

4-Апр-18

Зарубежные сериалы ·· Сирена / Siren / Сезон: 1 / Серии: 1-5 из 10 (Скотт Чарльз Стюарт, Джей Карас) [2018, США, Драма, триллер, фэнтези, WEBRip] Dub (Amedia) + Original Galfimbul 27587768322.57 GB 0 0 1522511288

18:48

31-Мар-18

Еще никто не оставлял запись к записи скачать торрент Сирена Siren . Будь первым!

!Обратная связь