1x15 Te Recuerdo
Agniparvatham Pukanju

Скачать через торрент Джессика Джонс Marvels Jessica Jones Фильм бесплатно в хорошем качестве torrent

Скачивайте на UnionPeer.org фильмы через торрент без регистрации. Новинки кино в хорошем качестве через торрент. На UnionPeer.org можно скачать через торрент фильмы 2014 и 2015 годов. Самые новые фильмы.

Скачать торрент Джессика Джонс Marvels Jessica Jones бесплатно через .torrent фильм мультфильм сериал

Статистика раздачи
Размер:  13.16 GB   |    Зарегистрирован:  6 дней   |    .torrent скачан:  28 раз   |   
Раздают:  1  
   
загрузка...
 
Автор Сообщение

Galfimbul

avatar Galfimbul


Джессика Джонс / Jessica Jones

• Год выпуска: 2018
• Страна: США
• Жанр: фантастика, боевик, драма, криминал, экранизация комиксов
• Продолжительность: ~ 00:55:00
• Перевод: Профессиональный (многоголосый закадровый) | NewStudio
• Режиссёр: С.Дж. Кларксон, Дэвид Петрарка, Стивен Серджик
• В ролях: Кристен Риттер, Дэвид Теннант, Майк Колтер, Рэйчел Тейлор, Кэрри-Энн Мосс, Эйка Дарвилл, Эрин Мориарти, Уил Трэвэл, Сьюзи Абромейт, Фил Каппадора
• Описание: Не так давно Джессика Джонс была супергероем, но ее недолгое пребывание в этой роли закончилось трагедией. Сейчас она восстанавливает свою личную жизнь и карьеру вспыльчивого, язвительного и задиристого частного детектива в Адской Кухне. Джессика пытается преодолеть ненависть к себе и справиться с посттравматическим стрессом, а также борется с внутренними и внешними демонами. А свои экстраординарные способности она использует для защиты тех, кто в ней нуждается, особенно если они могут заплатить за это.

• Качество: WEB-DL 720p
• Контейнер: MKV
• Видео: x265, 10Bit, 1280х720 (16:9), 23,976 fps, ~2300 kbps, 0.100 bit/pixel
• Аудио: AC3, 48 kHz, 6 ch, 384 kbps - NewStudio
• Субтитры: Русские (Forced)
• Реклама: Отсутствует

Ссылка на предыдущие и альтернативные раздачи
General
Unique ID                   : 334368534575376802816751779925411556063 (0xFB8D098DCD0665A910195017FB6CEADF)
Complete name               : M:\Сериалы\Джессика Джонс\Jessica Jones (season 02) NewStudio\Jessica.Jones.s02e02.WEBRip.NewStudio.mkv
Format                      : Matroska
Format version              : Version 4 / Version 2
File size                   : 1.23 GiB
Duration                    : 56 min 21 s
Overall bit rate            : 3 113 kb/s
Movie name                  : Jessica Jones | Ep 02 | NewStudio
Encoded date                : UTC 2018-04-16 16:50:49
Writing application         : mkvmerge v22.0.0 ('At The End Of The World') 64-bit
Writing library             : libebml v1.3.5 + libmatroska v1.4.8
Cover                       : Yes
Attachments                 : cover.jpg
Encoding Gui                : Hybrid 2018.02.18.1

Video
ID                          : 1
Format                      : HEVC
Format/Info                 : High Efficiency Video Coding
Format profile              : Main [email protected]@High
Codec ID                    : V_MPEGH/ISO/HEVC
Duration                    : 56 min 21 s
Bit rate                    : 2 733 kb/s
Width                       : 1 280 pixels
Height                      : 720 pixels
Display aspect ratio        : 16:9
Frame rate mode             : Constant
Frame rate                  : 23.976 (24000/1001) FPS
Color space                 : YUV
Chroma subsampling          : 4:2:0 (Type 0)
Bit depth                   : 10 bits
Bits/(Pixel*Frame)          : 0.124
Stream size                 : 1.08 GiB (88%)
Writing library             : x265 2.6+42-52782aeb2081:[Windows][GCC 7.3.0][64 bit] 10bit
Encoding settings           : cpuid=1049087 / frame-threads=4 / numa-pools=8 / wpp / no-pmode / no-pme / no-psnr / no-ssim / log-level=2 / input-csp=1 / input-res=1280x720 / interlace=0 / total-frames=0 / level-idc=41 / high-tier=1 / uhd-bd=0 / ref=5 / no-allow-non-conformance / no-repeat-headers / annexb / no-aud / no-hrd / info / hash=0 / no-temporal-layers / open-gop / min-keyint=23 / keyint=240 / gop-lookahead=0 / bframes=8 / b-adapt=2 / b-pyramid / bframe-bias=0 / rc-lookahead=40 / lookahead-slices=4 / scenecut=40 / radl=0 / no-intra-refresh / ctu=32 / min-cu-size=8 / rect / no-amp / max-tu-size=32 / tu-inter-depth=3 / tu-intra-depth=3 / limit-tu=4 / rdoq-level=2 / dynamic-rd=0.00 / no-ssim-rd / signhide / no-tskip / nr-intra=0 / nr-inter=0 / no-constrained-intra / no-strong-intra-smoothing / max-merge=3 / limit-refs=3 / limit-modes / me=3 / subme=7 / merange=57 / temporal-mvp / weightp / weightb / no-analyze-src-pics / deblock=-3:-3 / no-sao / no-sao-non-deblock / rd=4 / no-early-skip / rskip / no-fast-intra / no-tskip-fast / no-cu-lossless / no-b-intra / no-splitrd-skip / rdpenalty=0 / psy-rd=2.00 / psy-rdoq=1.00 / no-rd-refine / no-lossless / cbqpoffs=0 / crqpoffs=0 / rc=crf / crf=19.0 / qcomp=0.60 / qpstep=4 / stats-write=0 / stats-read=0 / vbv-maxrate=50000 / vbv-bufsize=50000 / vbv-init=0.9 / crf-max=0.0 / crf-min=0.0 / ipratio=1.40 / pbratio=1.30 / aq-mode=1 / aq-strength=1.00 / cutree / zone-count=0 / no-strict-cbr / qg-size=32 / no-rc-grain / qpmax=69 / qpmin=0 / no-const-vbv / sar=1 / overscan=0 / videoformat=5 / range=0 / colorprim=2 / transfer=2 / colormatrix=1 / chromaloc=1 / chromaloc-top=0 / chromaloc-bottom=0 / display-window=0 / max-cll=0,0 / min-luma=0 / max-luma=1023 / log2-max-poc-lsb=8 / vui-timing-info / vui-hrd-info / slices=1 / no-opt-qp-pps / no-opt-ref-list-length-pps / no-multi-pass-opt-rps / scenecut-bias=0.05 / no-opt-cu-delta-qp / no-aq-motion / no-hdr / no-hdr-opt / no-dhdr10-opt / analysis-reuse-level=5 / scale-factor=0 / refine-intra=0 / refine-inter=0 / refine-mv=0 / no-limit-sao / ctu-info=0 / no-lowpass-dct / refine-mv-type=0 / copy-pic=1
Language                    : English
Default                     : Yes
Forced                      : Yes
Color range                 : Limited
Matrix coefficients         : BT.709

Audio
ID                          : 2
Format                      : AC-3
Format/Info                 : Audio Coding 3
Codec ID                    : A_AC3
Duration                    : 55 min 30 s
Bit rate mode               : Constant
Bit rate                    : 384 kb/s
Channel(s)                  : 6 channels
Channel positions           : Front: L C R, Side: L R, LFE
Sampling rate               : 48.0 kHz
Frame rate                  : 31.250 FPS (1536 SPF)
Bit depth                   : 16 bits
Compression mode            : Lossy
Stream size                 : 152 MiB (12%)
Title                       : NewStudio
Language                    : Russian
Service kind                : Complete Main
Default                     : Yes
Forced                      : No

Text
ID                          : 3
Format                      : ASS
Codec ID                    : S_TEXT/ASS
Codec ID/Info               : Advanced Sub Station Alpha
Duration                    : 29 min 59 s
Bit rate                    : 1 b/s
Count of elements           : 5
Compression mode            : Lossless
Stream size                 : 343 Bytes (0%)
Title                       : Forced
Language                    : Russian
Default                     : Yes
Forced                      : Yes


Трекер:  [ 16-Апр-2018 21:18 ]

  

Скачать .torrent

Размер .torrent файла 34 KB


Размер: 13.16 GB
Хэш (hash) релиза: 4c4b91220a38f5a8fc587760131c78836eea7106
Подписка на обновления:

Торренты, похожие на Джессика Джонс Marvels Jessica Jones скачать торрент

Форум Название Автор Размер S L Добавлен
Зарубежные сериалы ·· Джессика Джонс / Marvel’s Jessica Jones / Сезон: 2 / Серии: 1-13 из 13 (Мелисса Розенберг) [2018, США, фантастика, боевик, триллер, драма, криминал, WEB-DLRip] DVO (Gears Media) + Original Galfimbul 75398744727.02 GB 0 0 1520923689

09:48

13-Мар-18

Зарубежные сериалы ·· Джессика Джонс / Marvel’s Jessica Jones / Сезон: 2 / Серии: 1-13 из 13 (Мелисса Розенберг) [2018, США, фантастика, боевик, триллер, драма, криминал, WEB-DL 720p] DVO (Gears Media) + Original Galfimbul 1292845962612.04 GB 0 0 1520912902

06:48

13-Мар-18

Зарубежные сериалы ·· Джессика Джонс / Marvel’s Jessica Jones / Сезон: 2 / Серии: 1-13 из 13 (Мелисса Розенберг / Melissa Rosenberg) [2018, США, фантастика, боевик, триллер, драма, криминал, WEBRip] MVO (BaibaKo) + Original (Eng) + Subs (Rus, Eng) Galfimbul 105217262489.8 GB 0 0 1520763780

13:23

11-Мар-18

Зарубежные сериалы ·· Джессика Джонс / Marvel’s Jessica Jones / Сезон: 2 / Серии: 1-13 из 13 (Анна Ферстер, Минки Спиро, Майрзи Алмас, Дебора Чоу, Милисент Шелтон, Джет Уилкинсон, Джен) [2018, США, Фантастика, Боевик, Триллер, Драма, Криминал, WEBRip 1080p] MVO (Coldfilm) Galfimbul 2351098897621.9 GB 0 0 1520628874

23:54

9-Мар-18

Зарубежные сериалы ·· Джессика Джонс / Marvel's Jessica Jones / Сезон: 2 / Серии: 1-3 из 13 (Melissa Rosenberg) [2018, США, фантастика, боевик, драма, криминал, HDTVRip 1080p] Original + Rus Sub (PhysKids) Galfimbul 1085284342410.11 GB 0 0 1520551465

02:24

9-Мар-18

Зарубежные сериалы ·· Джессика Джонс / Marvel's Jessica Jones / Сезон: 1 / Серии: 1-2 из 13 (С.Дж. Кларксон / S.J. Clarkson) [2015, фантастика, боевик, драма, криминал, WEBRip 1080p] MVO (LostFilm) + Original + Subs (Rus, Eng) Galfimbul 1081229041710.07 GB 0 0 1449409816

16:50

6-Дек-15

Зарубежные сериалы ·· Джессика Джонс / Marvel's Jessica Jones / Сезон: 1 / Серии: 1-2 из 13 (С.Дж. Кларксон / S.J. Clarkson) [2015, фантастика, боевик, драма, криминал, WEBRip 720p] MVO (LostFilm) + Original + Subs (Rus, Eng) Galfimbul 57521118815.36 GB 0 0 1449409810

16:50

6-Дек-15

Зарубежные сериалы ·· Джессика Джонс / Marvel's Jessica Jones / Сезон: 1 / Серии: 1-2 из 13 (С.Дж. Кларксон, Дэвид Петрарка, Стивен Серджик) [2015, фантастика, боевик, криминал, драма, WEBRip 720p] Original + Subs (Rus (Notabenoid), Eng, Spa, Ger, Fre, Dut, Por) Galfimbul 24846552572.31 GB 0 0 1448207132

18:45

22-Ноя-15

Зарубежные сериалы ·· Джессика Джонс / Marvel's Jessica Jones / Сезон: 1 / Серии: 1-2 из 13 (С.Дж. Кларксон, Дэвид Петрарка, Стивен Серджик) [2015, Триллер, драма, детектив WEBRip 720p] MVO (NewStudio) + Original Galfimbul 27815937532.59 GB 0 0 1448130101

21:21

21-Ноя-15

Еще никто не оставлял запись к записи скачать торрент Джессика Джонс Marvels Jessica Jones . Будь первым!

!Обратная связь