Скачать APK | Voyoucratie Thriller 2016 À sa sortie de prison, Sam tente de se réinsérer mais il est vite rattrapé par le milieu et sombre... | Thank You (Alternative Kasual Remix) ★FREE DOWNLOAD★

Скачать через торрент ФАУДА FAUDA פאודה Фильм бесплатно в хорошем качестве torrent

Скачивайте на UnionPeer.org фильмы через торрент без регистрации. Новинки кино в хорошем качестве через торрент. На UnionPeer.org можно скачать через торрент фильмы 2014 и 2015 годов. Самые новые фильмы.

Скачать торрент ФАУДА FAUDA פאודה бесплатно через .torrent фильм мультфильм сериал

Статистика раздачи
Размер:  15.47 GB   |    Зарегистрирован:  3 месяца   |    .torrent скачан:  36 раз   |   
Раздают:  1  
   
загрузка...
 
Автор Сообщение

Galfimbul

avatar Galfimbul


ФАУДА / FAUDA פאודה

Год выпуска: 2015
Страна: Израиль
Жанр: драма
Продолжительность: 40

Перевод: Субтитры Netflix

Режиссёр: Асаф Бернштейн

В ролях: Лиор Раз, Цахи Алеви, Нета Гарти, Юваль Сегаль, Рона Ли Шимон, Шади Мари, Латисия Айду, Хишам Сулейман

Описание: Драма о израильско-палестинском конфликте, который представлен на этот раз с двух сторон – еврейской и арабской, и настолько близко к реальности, насколько это возможно в кино.
В центре истории - бойцы секретного подразделения "мистаравим", действующие на территориях под маской "местных" во время охоты на террористов. Спецназовцы охотятся за террористом Хамедом, которому все время удается уходить от преследования. Израильские бойцы находятся в состоянии постоянного стресса, поскольку в любую секунду ситуация может выйти из-под контроля и превратится в "фауду" - хаос на вражеской территории. Цена ошибки высока. Но есть цель, ради которой бойцы идут на эту тяжелую мужскую работу..

Сэмпл: http://yadi.sk/i/lJv9Fj823UTysY

Качество: WEB-DL
Формат: MKV
Видео: 1920*1080 (16:9) 4785 kb/s, 25.000FPS, AVC
Аудио: Hebrew, 96kb/s, 48.0 kHz, 2 channels, AAC
Субтитры: русские отключаемые (VobSub) [Netflix]
английские отключаемые (SRT) [Netflix]

Реклама:
нет
Формат : Matroska
Версия формата : Version 4 / Version 2
Размер файла : 1.47 GiB
Продолжительность : 43 min 12 s
Общий поток : 4 885 kb/s
Дата кодирования : UTC 2018-04-15 21:23:10
Программа кодирования : mkvmerge v22.0.0 ('At The End Of The World') 64-bit
Библиотека кодирования : libebml v1.3.5 + libmatroska v1.4.8

Video
Идентификатор : 2
Формат : AVC
Формат/Информация : Advanced Video Codec
Профиль формата : [email protected]
Настройки формата : 1 Ref Frames
Параметр CABAC формата : No
Параметр RefFrames формата : 1 frame
Параметр GOP формата : M=1, N=13
Идентификатор кодека : V_MPEG4/ISO/AVC
Продолжительность : 43 min 12 s
Битрейт : 4 785 kb/s
Ширина : 1 920 pixels
Высота : 1 080 pixels
Соотношение сторон : 16:9
Режим частоты кадров : Constant
Частота кадров : 25.000 FPS
Цветовое пространство : YUV
Субдискретизация насыщенности : 4:2:0
Битовая глубина : 8 bits
Тип развёртки : Progressive
Бит/(Пиксели*Кадры) : 0.092
Размер потока : 1.44 GiB (98%)
Default : Yes
Forced : No

Audio
Идентификатор : 1
Формат : AAC
Формат/Информация : Advanced Audio Codec
Профиль формата : HE-AAC / LC
Настройки формата : Implicit
Идентификатор кодека : A_AAC-2
Продолжительность : 43 min 12 s
Битрейт : 96.0 kb/s
Каналы : 2 channels
Расположение каналов : Front: L R
Частота : 48.0 kHz / 24.0 kHz
Частота кадров : 23.438 FPS (1024 SPF)
Метод сжатия : Lossy
Размер потока : 29.3 MiB (2%)
Язык : Hebrew
Default : Yes
Forced : No

Text #1
Идентификатор : 3
Формат : UTF-8
Идентификатор кодека : S_TEXT/UTF8
Идентификатор кодека/Информация : UTF-8 Plain Text
Продолжительность : 40 min 38 s
Битрейт : 44 b/s
ElementCount : 378
Размер потока : 13.3 KiB (0%)
Язык : English
Default : Yes
Forced : No

Text #2
Идентификатор : 4
Формат : VobSub
Режим смешивания : zlib
Идентификатор кодека : S_VOBSUB
Идентификатор кодека/Информация : Picture based subtitle format used on DVDs
Продолжительность : 40 min 34 s
Битрейт : 6 328 b/s
ElementCount : 377
Размер потока : 1.84 MiB (0%)
Язык : Russian
Default : No
Forced : No
Предыдущие и альтернативные раздачи

Трекер:  [ 16-Апр-2018 21:18 ]

  

Скачать .torrent

Размер .torrent файла 156 KB


Размер: 15.47 GB
Хэш (hash) релиза: 3cf7e9f633aff7a647967408e07bfdbe76faf4ec
Подписка на обновления:

Еще никто не оставлял запись к записи скачать торрент ФАУДА FAUDA פאודה . Будь первым!

!Обратная связь