Oppa Thinking - 오빠생각Oppa Thinking
Continuer la lecture

Скачать через торрент Сирена Siren Фильм бесплатно в хорошем качестве torrent

Скачивайте на UnionPeer.org фильмы через торрент без регистрации. Новинки кино в хорошем качестве через торрент. На UnionPeer.org можно скачать через торрент фильмы 2014 и 2015 годов. Самые новые фильмы.

Скачать торрент Сирена Siren бесплатно через .torrent фильм мультфильм сериал

Статистика раздачи
Размер:  2.11 GB   |    Зарегистрирован:  3 дня   |    .torrent скачан:  31 раз   |   
Раздают:  2  
   
загрузка...
 
Автор Сообщение

Galfimbul

avatar Galfimbul


Сирена / Siren

Год выпуска: 2018
Страна: США,Amblin Television, Stage 29 Productions, CBS Television Studios
Жанр: Драма
Продолжительность: ~ 00:45:00
Перевод: Профессиональный (многоголосый закадровый) | Jaskier
Режиссёр: Ник Копус, Джей Карас, Скотт Чарльз Стюарт
В ролях:Элайн Пауэлл, Фола Эванс-Экинбола, Сибонгиле Мламбо, Йен Вердён, Рина Оуэн, Рон Юань, Тэмми Гиллис, Кертис Льюм, Чад Рук, Энтони Харрисон
Описание: По легенде возле Бристольской бухты когда-то жили русалки. Однажды здесь появляется таинственная зеленоглазая девушка. Кому-то встреча с ней принесет смерть, а для кого-то она приоткроет старые тайны на первый взгляд безобидного провинциального города.

Качество: WEBRip
Формат: AVI
Видео: XviD, ~ 1500 kbps, 720x400 (16:9), 23.976 fps
Аудио 1: MP3, 48,0 КГц, 2 ch, 128 kbps - Rus
Аудио 2: MP3, 48,0 КГц, 2 ch, 128 kbps - Eng
Реклама: Присутствует звуковая (два раза в начале и конце по 10 сек.)
Ссылка на предыдущие и альтернативные раздачи
Переведено и озвучено: студией Jaskier
Общее
Полное имя                               : F:\Jaskier\Siren Season 1 (WEBRip l 400p l Jaskier)\Siren.S01E01.WEBRip.Jaskier.avi
Формат                                   : AVI
Формат/Информация                        : Audio Video Interleave
Размер файла                             : 583 Мбайт
Продолжительность                        : 45 м. 57 с.
Общий поток                              : 1772 Кбит/сек
Программа кодирования                    : VirtualDubMod 1.5.10.3 | www.virtualdub-fr.org || (build 2550/release)

Видео
Идентификатор                            : 0
Формат                                   : MPEG-4 Visual
Профиль формата                          : Advanced [email protected]
Настройки формата                        : BVOP2
Параметр BVOP формата                    : 2
Параметр QPel формата                    : Нет
Параметр GMC формата                     : Без точки перехода
Параметр матрицы формата                 : Default (H.263)
Идентификатор кодека                     : XVID
Идентификатор кодека/Подсказка           : XviD
Продолжительность                        : 45 м. 57 с.
Битрейт                                  : 1502 Кбит/сек
Ширина                                   : 720 пикселей
Высота                                   : 400 пикселей
Соотношение сторон                       : 16:9
Частота кадров                           : 23,976 (24000/1001) кадра/сек
Цветовое пространство                    : YUV
Субдискретизация насыщенности            : 4:2:0
Битовая глубина                          : 8 бит
Тип развёртки                            : Прогрессивная
Метод сжатия                             : С потерями
Бит/(Пиксели*Кадры)                      : 0.218
Размер потока                            : 494 Мбайт (85%)
Библиотека кодирования                   : XviD 67

Аудио #1
Идентификатор                            : 1
Формат                                   : MPEG Audio
Версия формата                           : Version 1
Профиль формата                          : Layer 3
Настройки формата                        : Joint stereo / MS Stereo
Идентификатор кодека                     : 55
Идентификатор кодека/Подсказка           : MP3
Продолжительность                        : 45 м. 57 с.
Вид битрейта                             : Постоянный
Битрейт                                  : 128 Кбит/сек
Каналы                                   : 2 канала
Частота                                  : 48,0 КГц
Частота кадров                           : 41,667 кадра/сек (1152 SPF)
Метод сжатия                             : С потерями
Размер потока                            : 42,1 Мбайт (7%)
Выравнивание                             : Соединение по промежуткам
Продолжительность промежутка             : 42  мс. (1,00 видеокадр)
Время предзагрузки промежутка            : 504  мс.
Библиотека кодирования                   : LAME3.100
Настройки программы                      : -m j -V 4 -q 3 -lowpass 17 -b 128

Аудио #2
Идентификатор                            : 2
Формат                                   : MPEG Audio
Версия формата                           : Version 1
Профиль формата                          : Layer 3
Настройки формата                        : Joint stereo / MS Stereo
Идентификатор кодека                     : 55
Идентификатор кодека/Подсказка           : MP3
Продолжительность                        : 45 м. 57 с.
Вид битрейта                             : Постоянный
Битрейт                                  : 128 Кбит/сек
Каналы                                   : 2 канала
Частота                                  : 48,0 КГц
Метод сжатия                             : С потерями
Размер потока                            : 42,1 Мбайт (7%)
Выравнивание                             : Соединение по промежуткам
Продолжительность промежутка             : 42  мс. (1,00 видеокадр)
Время предзагрузки промежутка            : 504  мс.
Когда раздача ведётся путём добавления новых серий, при каждом добавлении создётся новый торрент. Чтобы начать докачку новой серии, пользователям необходимо сделать следующее:
(1) остановить скачивание,
(2) удалить старый торрент у себя из клиента (старые серии удалять не надо),
(3) скачать новый торрент и запустить его у себя в клиенте вместо старого, при этом указать клиенту путь в старую папку, куда и должно происходить скачивание новых серий.
Ваш клиент при этом должен произвести хеширование (проверку) старой папки (если не производит сам - помогите ему сделать это), и будет докачивать только те серии, которых у вас ещё нет. Старые серии при этом не удаляются, а продолжают раздаваться!
Eсли вы уже удалили старые серии, то предотвратить повторную закачку старых серий можно, отжав галочку в соответсвующих местах при запуске нового торрента. По возможности, желательно не удалять старые серии как можно дольше, чтобы релизёр не столько продолжал раздавать старые серии, а смог сконцентрироваться на новых.



Трекер:  [ 16-Апр-2018 21:18 ]

  

Скачать .torrent

Размер .torrent файла 11 KB


Размер: 2.11 GB
Хэш (hash) релиза: f0e8a1882687ef57445ca1b96fcf676e6104ff7b
Подписка на обновления:

Торренты, похожие на Сирена Siren скачать торрент

Форум Название Автор Размер S L Добавлен
Зарубежные сериалы ·· Сирена / Siren / Сезон: 1 / Серии: 1-4 из 10 (Ник Копус, Джей Карас, Скотт Чарльз Стюарт) [2018, США, Фэнтези, драма, WEBRip 720p] MVO (Jaskier) + Original Galfimbul 47795153504.45 GB 0 0 1523902721

21:18

16-Апр-18

Зарубежные сериалы ·· Сирена / Siren / Сезон: 1 / Серии: 1-4 из 10 (Ник Копус, Стив Эделсон, Джон Бэдэм) [2018, США, фэнтези, драма, WEB-DL 720p] DVO (Gears Media) + Original Galfimbul 49806517564.64 GB 0 0 1523105319

15:48

7-Апр-18

Зарубежные сериалы ·· Сирена / Siren / Сезон: 1 / Серии: 1-4 из 10 (Ник Копус, Стив Эделсон, Джон Бэдэм) [2018, США, фэнтези, драма, WEB-DLRip] DVO (Gears Media) + Original Galfimbul 21668482702.02 GB 0 0 1523105291

15:48

7-Апр-18

Зарубежные сериалы ·· Сирена / Siren / Сезон: 1 / Серии: 1-4 из 10 (Ник Копус) [2018, США, фэнтези, драма, WEBRip 720p] MVO (NewStudio) + Original Galfimbul 54394644105.07 GB 0 0 1522874901

23:48

4-Апр-18

Зарубежные сериалы ·· Сирена / Siren / Сезон: 1 / Серии: 1-4 из 10 (Ник Копус, Джей Карас, Скотт Чарльз Стюарт) [2018, США, фэнтези, драма, WEB-DLRip] MVO (NewStudio) + Original Galfimbul 22612664322.11 GB 0 0 1522873088

23:18

4-Апр-18

Зарубежные сериалы ·· Сирена / Siren / Сезон: 1 / Серии: 1-4 из 10 (Скотт Чарльз Стюарт, Джей Карас) [2018, США, Драма, триллер, фэнтези, WEBRip] Dub (Amedia) + Original Galfimbul 22234337282.07 GB 0 0 1522511288

18:48

31-Мар-18

Еще никто не оставлял запись к записи скачать торрент Сирена Siren . Будь первым!

!Обратная связь