Watch Online! | Children's | Tavi Castro - Moonlight ft. Jay Fonseca

Скачать через торрент Свадьба Фильм бесплатно в хорошем качестве torrent

Скачивайте на UnionPeer.org фильмы через торрент без регистрации. Новинки кино в хорошем качестве через торрент. На UnionPeer.org можно скачать через торрент фильмы 2014 и 2015 годов. Самые новые фильмы.

Скачать торрент Свадьба бесплатно через .torrent фильм мультфильм сериал

Статистика раздачи
Размер:  4.02 GB   |    Зарегистрирован:  1 месяц 9 дней   |    .torrent скачан:  46 раз   |   
Раздают:  1  
   
загрузка...
 
Автор Сообщение

Galfimbul

avatar Galfimbul


Свадьба

Страна: Франция, Россия, Германия
Студия: arte France Cinéma, Catherine Dussart Productions (CDP), Ciné B, Эталон-фильм, Lichtblick Film- und Fernsehproduktion (II), Мосфильм, Westdeutscher Rundfunk (WDR)
Жанр: драма, комедия
Год выпуска: 2000
Продолжительность: 01:47:14

Перевод: Не требуется
Субтитры: нет
Оригинальная аудиодорожка: русский

Режиссер: Павел Лунгин

В ролях: Марат Башаров, Мария Миронова, Андрей Панин, Александр Семчев, Наталья Коляканова, Владимир Симонов, Мария Голубкина, Елена Новикова, Владимир Кашпур, Павел Поймалов

Описание: Молодая девушка Таня возвращается из Москвы в родной город Липки. Все вокруг ей знакомо с детства: дома и их жители, подруги и простой парень Миша, любящий ее еще со школы. На танцах, хлебнув водки для храбрости, Таня пообещала Мише подбросить монетку и, если выпадет орел, она выйдет за него замуж… Сэмпл: Сэмпл

Тип релиза: WEBRip 1080p
Контейнер: MKV

Видео: MPEG4 Video (H264) 1920x1080 25fps 5120 kbps
Аудио: AAC 48000Hz stereo 256 kbps
eneral
Complete name : Свадьба (2000) WEB-DL 1080p by MIF.mp4
Format : MPEG-4
Format profile : Base Media
Codec ID : isom (isom/iso2/avc1/mp41)
File size : 4.02 GiB
Duration : 1 h 47 min
Overall bit rate : 5 368 kb/s
Writing application : Lavf55.33.100

Video
ID : 1
Format : AVC
Format/Info : Advanced Video Codec
Format profile : [email protected]
Format settings, CABAC : Yes
Format settings, ReFrames : 4 frames
Codec ID : avc1
Codec ID/Info : Advanced Video Coding
Duration : 1 h 47 min
Bit rate : 5 120 kb/s
Width : 1 920 pixels
Height : 1 080 pixels
Display aspect ratio : 16:9
Frame rate mode : Constant
Frame rate : 25.000 FPS
Color space : YUV
Chroma subsampling : 4:2:0
Bit depth : 8 bits
Scan type : Progressive
Bits/(Pixel*Frame) : 0.099
Stream size : 3.83 GiB (95%)
Writing library : x264 core 142
Encoding settings : cabac=1 / ref=3 / deblock=1:0:0 / analyse=0x3:0x113 / me=hex / subme=7 / psy=1 / psy_rd=1.00:0.00 / mixed_ref=1 / me_range=16 / chroma_me=1 / trellis=1 / 8x8dct=1 / cqm=0 / deadzone=21,11 / fast_pskip=1 / chroma_qp_offset=-2 / threads=48 / lookahead_threads=8 / sliced_threads=0 / nr=0 / decimate=1 / interlaced=0 / bluray_compat=0 / constrained_intra=0 / bframes=6 / b_pyramid=2 / b_adapt=1 / b_bias=0 / direct=1 / weightb=1 / open_gop=0 / weightp=2 / keyint=50 / keyint_min=26 / scenecut=0 / intra_refresh=0 / rc_lookahead=40 / rc=2pass / mbtree=1 / bitrate=5120 / ratetol=1.0 / qcomp=0.60 / qpmin=0 / qpmax=69 / qpstep=4 / cplxblur=20.0 / qblur=0.5 / vbv_maxrate=7680 / vbv_bufsize=20480 / nal_hrd=none / filler=0 / ip_ratio=1.40 / aq=1:1.00
Language : Russian
Tagged date : UTC 2018-03-16 19:53:59

Audio
ID : 2
Format : AAC
Format/Info : Advanced Audio Codec
Format profile : LC
Codec ID : 40
Duration : 1 h 47 min
Duration_LastFrame : 43 ms
Bit rate mode : Constant
Bit rate : 256 kb/s
Channel(s) : 2 channels
Channel positions : Front: L R
Sampling rate : 48.0 kHz
Frame rate : 46.875 FPS (1024 spf)
Compression mode : Lossy
Stream size : 196 MiB (5%)
Language : Russian
Default : Yes
Alternate group : 1
Tagged date : UTC 2018-03-16 19:53:59


Трекер:  [ 16-Апр-2018 21:01 ]

  

Скачать .torrent

Размер .torrent файла 20 KB


Размер: 4.02 GB
Хэш (hash) релиза: e19f76237821f7a6bd4de49b1e8d7b8187bfa8ef
Подписка на обновления:

Торренты, похожие на Свадьба скачать торрент

Форум Название Автор Размер S L Добавлен
Зарубежные фильмы 2016-2018 (Новинки зарубежного кино) ·%· Другая сторона свадьбы / Another Kind of Wedding (2017) WEBRip | L2 Galfimbul 11924500481.11 GB 0 0 1527334840

14:40

26-Май-18

Документальные фильмы и телепередачи ·· Свадьба принца Уильяма и Кэйт Миддлтон / Большая королевская свадьба / Свадьба по-королевски / William i Catherine: The Royal Wedding [2011, Церемония, свадьба, документальный, soundtrack TVRip, HDTV] (Обновлено 02 мая) damien1990 4204438206839.16 GB 0 0 1364932824

23:00

2-Апр-13

Зарубежные сериалы ·· свадьба / yersin / Сезон: 1 / Серии: 1 из 1 (свадьба) [2015, свадьба, HDDVDRip] DVO Galfimbul 5789343931453.92 GB 0 0 1446736720

18:18

5-Ноя-15

Зарубежные сериалы ·· Лучшая свадьба / Лучший брак / Величайшая свадьба / Великая свадьба / The Greatest Wedding / Choigoui Gyeolhon / The Greatest Marriage [16/16] [О Чжон Рок / Ко Юн Хи] [2014 г., романтика, комедия, драма] [720р] GREEN TEA Galfimbul 2015088025618.77 GB 0 0 1421086157

21:09

12-Янв-15

Зарубежные фильмы до 2016 ·· Ещё три свадьбы / Три лишние свадьбы / Tres bodas de mas (Хавьер Руис Кальдера / Javier Ruiz Caldera) [2013, Испания, комедия, BDRemux 1080p] AVO (Антон Алексеев) + Sub Eng + Original Spa Galfimbul 2399117390822.34 GB 0 0 1430389258

13:20

30-Апр-15

Зарубежные сериалы ·· Великая свадьба / Лучшая свадьба / Великолепный брак / Choi-gou-i gyeo-lhon / The Greatest Marriage / The Greatest Wedding [4/16] [2014, романтика, комедия, драма, HDTVRip] [RAW] [720p] MVO (STEPonee) Galfimbul 49027051524.57 GB 0 0 1429303328

23:42

17-Апр-15

Зарубежные сериалы ·· Великолепный брак / Лучшая свадьба / Лучший брак / Величайшая свадьба / The Greatest Wedding [13/16] [2014, комедия, романтика, HDTVRip] [720p] (Julia Prosenuk) Galfimbul 91130566748.49 GB 0 0 1418942358

01:39

19-Дек-14

Документальные фильмы и телепередачи ·· Свадьба Бурятия / Свадьба (Bair Bazarov) [2012, Документальный] [HDTVRip 1080p] nCore 61053246715.69 GB 0 0 1351955820

18:17

3-Ноя-12

Фильмы Ближнего Зарубежья ·· Свадьба на троих (Аскар Бисембин) [2015, Казахстан, комедия, WEB-DLRip] + Sub Rus Galfimbul 14527733761.35 GB 0 0 1526739859

17:24

19-Май-18

Зарубежные фильмы до 2016 ·· Безумная свадьба / Serial (Bad) Weddings / Qu'est-ce qu'on a fait au Bon Dieu? (Филипп де Шоврон / Philippe de Chauveron) [2014, Франция, Комедия, DVD9] R5 Dub + Sub Rus + Original Fre Galfimbul 52707471364.91 GB 0 0 1525550509

23:01

5-Май-18

Зарубежные фильмы 2016-2018 (Новинки зарубежного кино) ·· План свадьбы / Преодоление / Laavor et hakir / The Wedding Plan (Рама Бурштейн / Rama Burshtein) [2016, Израиль, комедия, HDTVRip 720p] GreenРай Studio Galfimbul 28918551592.69 GB 0 0 1524391866

13:11

22-Апр-18

Зарубежные фильмы 2016-2018 (Новинки зарубежного кино) ·· План свадьбы / Преодоление / Laavor et hakir / The Wedding Plan (Рама Бурштейн / Rama Burshtein) [2016, Израиль, комедия, HDTVRip] GreenРай Studio Galfimbul 14733842841.37 GB 0 0 1524391827

13:10

22-Апр-18

Зарубежные фильмы 2016-2018 (Новинки зарубежного кино) ·· Свадьба Уайлд / The Wilde Wedding (Дэмиэн Харрис) [2017 г., Комедия, HDRip 720р] GreenРай Studio Galfimbul 14998342971.4 GB 0 0 1522229431

12:30

28-Мар-18

Зарубежные фильмы 2016-2018 (Новинки зарубежного кино) ·· Свадьба Уайлд / The Wilde Wedding (Дэмиэн Харрис) [2017 г., Комедия, HDRip] GreenРай Studio Galfimbul 14681763841.37 GB 0 0 1522229038

12:23

28-Мар-18

Зарубежные фильмы 2016-2018 (Новинки зарубежного кино) ·· Свадьба Уайлд / The Wilde Wedding (Дэмиэн Харрис) [2017 г., Комедия, HDRip 1080р] GreenРай Studio Galfimbul 62615065035.83 GB 0 0 1522229027

12:23

28-Мар-18

Зарубежные фильмы 2016-2018 (Новинки зарубежного кино) ·· Свадьба / Noces (Стивен Стрекер) [2016, драма, HDRip] GreenРай Studio Galfimbul 14657003521.37 GB 0 0 1520158826

13:20

4-Мар-18

Зарубежные фильмы 2016-2018 (Новинки зарубежного кино) ·· Свадьба / Noces (Стивен Стрекер) [2016, драма, HDRip 720p] Sub Galfimbul 33501314443.12 GB 0 0 1520158812

13:20

4-Мар-18

Развлекательные телепередачи и шоу ·· Свадьба вслепую / Одруження наосліп / 3 сезон 1-5 выпуск из 9 [2016, HDTVRip] Galfimbul 46620626834.34 GB 0 0 1519143431

19:17

20-Фев-18

Развлекательные телепередачи и шоу ·· Свадьба вслепую /весілля наосліп/ 2 сезон полностью 1-9 серии из 9 [2014, WEBRip] Galfimbul 22361164752.08 GB 0 0 1518961725

16:48

18-Фев-18

Еще никто не оставлял запись к записи скачать торрент Свадьба . Будь первым!

!Обратная связь