10 Cloverfield Lane (2016) | шансон для души | Arié Elmaleh

Скачать через торрент Джессика Джонс Marvels Jessica Jones Фильм бесплатно в хорошем качестве torrent

Скачивайте на UnionPeer.org фильмы через торрент без регистрации. Новинки кино в хорошем качестве через торрент. На UnionPeer.org можно скачать через торрент фильмы 2014 и 2015 годов. Самые новые фильмы.

Скачать торрент Джессика Джонс Marvels Jessica Jones бесплатно через .torrent фильм мультфильм сериал

Статистика раздачи
Размер:  11.85 GB   |    Зарегистрирован:  3 месяца   |    .torrent скачан:  28 раз   |   
Раздают:  1  
   
загрузка...
 
Автор Сообщение

Galfimbul

avatar Galfimbul


Джессика Джонс / Jessica Jones

• Год выпуска: 2015
• Страна: США
• Жанр: фантастика, боевик, драма
• Продолжительность: ~ 50 мин
• Перевод: Профессиональный (многоголосый закадровый) NewStudio
• Режиссёр: С.Дж. Кларксон / S.J. Clarkson
• В ролях: Кристен Риттер, Дэвид Теннант, Майк Колтер, Рэйчел Тейлор, Кэрри-Энн Мосс, Эка Дарвилл, Эрин Мориарти, Уил Трэвэл, Райан Фаррелл
• Описание: Главная героиня, несмотря на сверхспособности, вполне себе человек, а потому страдает от посттравматического стресса. Это влияет на её волевое решение оставить супергероическую жизнь в прошлом и стать — насколько это вообще возможно — обывательницей. Джессика открывает собственное детективное агентство, которое будет оказывать помощь как простым горожанам, так и супергероям, если им таковая понадобится.

• Качество: WEB-DL 720p
• Контейнер: MKV
• Видео: x265, 10Bit, 1280х720 (16:9), 23,976 fps, ~2300 kbps, 0.100 bit/pixel
• Аудио: AC3, 48 kHz, 6 ch, 384 kbps - NewStudio
• Субтитры: Отсутствуют
• Реклама: Отсутствует
General
Unique ID                   : 304585264192871430553017480376618464837 (0xE524FCF3A695280B10A15758A5A63645)
Complete name               : M:\Сериалы\Джессика Джонс\Jessica Jones (season 01) NewStudio\Jessica.Jones.s01e12.WEBRip.NewStudio.mkv
Format                      : Matroska
Format version              : Version 4 / Version 2
File size                   : 1.01 GiB
Duration                    : 53 min 59 s
Overall bit rate            : 2 689 kb/s
Encoded date                : UTC 2018-04-16 16:42:18
Writing application         : mkvmerge v22.0.0 ('At The End Of The World') 64-bit
Writing library             : libebml v1.3.5 + libmatroska v1.4.8
Cover                       : Yes
Attachments                 : cover.jpg
Encoding Gui                : Hybrid 2018.04.08.1

Video
ID                          : 1
Format                      : HEVC
Format/Info                 : High Efficiency Video Coding
Format profile              : Main [email protected]@High
Codec ID                    : V_MPEGH/ISO/HEVC
Duration                    : 53 min 59 s
Bit rate                    : 2 309 kb/s
Width                       : 1 280 pixels
Height                      : 720 pixels
Display aspect ratio        : 16:9
Frame rate mode             : Constant
Frame rate                  : 23.976 (24000/1001) FPS
Color space                 : YUV
Chroma subsampling          : 4:2:0 (Type 0)
Bit depth                   : 10 bits
Bits/(Pixel*Frame)          : 0.105
Stream size                 : 892 MiB (86%)
Writing library             : x265 2.6+22-ff02513b92c0:[Windows][GCC 7.2.0][64 bit] 10bit
Encoding settings           : cpuid=1050111 / frame-threads=4 / numa-pools=8 / wpp / no-pmode / no-pme / no-psnr / no-ssim / log-level=2 / input-csp=1 / input-res=1280x720 / interlace=0 / total-frames=0 / level-idc=41 / high-tier=1 / uhd-bd=0 / ref=5 / no-allow-non-conformance / no-repeat-headers / annexb / no-aud / no-hrd / info / hash=0 / no-temporal-layers / open-gop / min-keyint=23 / keyint=240 / gop-lookahead=0 / bframes=8 / b-adapt=2 / b-pyramid / bframe-bias=0 / rc-lookahead=40 / lookahead-slices=4 / scenecut=40 / radl=0 / no-intra-refresh / ctu=32 / min-cu-size=8 / rect / no-amp / max-tu-size=32 / tu-inter-depth=3 / tu-intra-depth=3 / limit-tu=4 / rdoq-level=2 / dynamic-rd=0.00 / no-ssim-rd / signhide / no-tskip / nr-intra=0 / nr-inter=0 / no-constrained-intra / no-strong-intra-smoothing / max-merge=3 / limit-refs=3 / limit-modes / me=3 / subme=7 / merange=57 / temporal-mvp / weightp / weightb / no-analyze-src-pics / deblock=-3:-3 / no-sao / no-sao-non-deblock / rd=4 / no-early-skip / rskip / no-fast-intra / no-tskip-fast / no-cu-lossless / no-b-intra / no-splitrd-skip / rdpenalty=0 / psy-rd=2.00 / psy-rdoq=1.00 / no-rd-refine / no-lossless / cbqpoffs=0 / crqpoffs=0 / rc=crf / crf=19.0 / qcomp=0.60 / qpstep=4 / stats-write=0 / stats-read=0 / vbv-maxrate=50000 / vbv-bufsize=50000 / vbv-init=0.9 / crf-max=0.0 / crf-min=0.0 / ipratio=1.40 / pbratio=1.30 / aq-mode=1 / aq-strength=1.00 / cutree / zone-count=0 / no-strict-cbr / qg-size=32 / no-rc-grain / qpmax=69 / qpmin=0 / no-const-vbv / sar=1 / overscan=0 / videoformat=5 / range=0 / colorprim=2 / transfer=2 / colormatrix=1 / chromaloc=1 / chromaloc-top=0 / chromaloc-bottom=0 / display-window=0 / max-cll=0,0 / min-luma=0 / max-luma=1023 / log2-max-poc-lsb=8 / vui-timing-info / vui-hrd-info / slices=1 / no-opt-qp-pps / no-opt-ref-list-length-pps / no-multi-pass-opt-rps / scenecut-bias=0.05 / no-opt-cu-delta-qp / no-aq-motion / no-hdr / no-hdr-opt / no-dhdr10-opt / analysis-save=(null) / analysis-load=(null) / analysis-reuse-level=5 / scale-factor=0 / refine-intra=0 / refine-inter=0 / refine-mv=0 / no-limit-sao / ctu-info=0 / no-lowpass-dct / refine-mv-type=0 / copy-pic=1
Default                     : Yes
Forced                      : Yes
Color range                 : Limited
Matrix coefficients         : BT.709

Audio
ID                          : 2
Format                      : AC-3
Format/Info                 : Audio Coding 3
Codec ID                    : A_AC3
Duration                    : 53 min 6 s
Bit rate mode               : Constant
Bit rate                    : 384 kb/s
Channel(s)                  : 6 channels
Channel positions           : Front: L C R, Side: L R, LFE
Sampling rate               : 48.0 kHz
Frame rate                  : 31.250 FPS (1536 SPF)
Bit depth                   : 16 bits
Compression mode            : Lossy
Delay relative to video     : 722 ms
Stream size                 : 146 MiB (14%)
Title                       : NewStudio
Language                    : Russian
Service kind                : Complete Main
Default                     : Yes
Forced                      : No
Ссылка на предыдущие и альтернативные раздачи


Трекер:  [ 16-Апр-2018 20:48 ]

  

Скачать .torrent

Размер .torrent файла 31 KB


Размер: 11.85 GB
Хэш (hash) релиза: 5316a8b4c0f8b05c2eaa8883d4239db59db98b2d
Подписка на обновления:

Торренты, похожие на Джессика Джонс Marvels Jessica Jones скачать торрент

Форум Название Автор Размер S L Добавлен
Зарубежные сериалы ·· Джессика Джонс / Marvel's Jessica Jones / Сезон: 1 / Серии: 1-13 из 13 (С.Дж. Кларксон / S.J. Clarkson) [2015, фантастика, боевик, драма, WEB-DL 1080p] MVO (NewStudio) + Original Galfimbul 6080457549756.63 GB 0 0 1455110388

16:19

10-Фев-16

Зарубежные сериалы ·· Джессика Джонс / Marvel's Jessica Jones / Сезон: 1 / Серии: 1-13 из 13 (С.Дж. Кларксон / S.J. Clarkson) [2015, фантастика, боевик, драма, криминал, WEBRip 1080p] MVO (LostFilm) + Original + Subs (Rus, Eng) Galfimbul 6625430980061.7 GB 0 0 1452209394

02:29

8-Янв-16

Зарубежные сериалы ·· Джессика Джонс / Marvel's Jessica Jones / Сезон: 1 / Серии: 1-13 из 13 (С.Дж. Кларксон / S.J. Clarkson) [2015, фантастика, боевик, драма, криминал, WEBRip 720p] MVO (LostFilm) + Original + Subs (Rus, Eng) Galfimbul 3539264210432.96 GB 0 0 1452209386

02:29

8-Янв-16

Зарубежные сериалы ·· Джессика Джонс / Marvel's Jessica Jones / Сезон: 1 / Серии: 1-13 из 13 (С.Дж. Кларксон, Дэвид Петрарка, Стивен Серджик) [2015, фантастика, боевик, драма, криминал, WEBRip 720p] Original + Subs (Rus (Notabenoid), Eng) Galfimbul 1690025173415.74 GB 0 0 1452322182

09:49

9-Янв-16

Зарубежные сериалы ·· Джессика Джонс / Marvel's Jessica Jones / Сезон: 1 / Серии: 1-13 из 13 (С.Дж. Кларксон, Дэвид Петрарка, Стивен Серджик) [2015, фантастика, боевик, драма, криминал, WEBRip 720p] Original + Subs (Rus (Notabenoid), Eng) Galfimbul 1689967058815.74 GB 0 0 1452285872

23:44

8-Янв-16

Зарубежные сериалы ·· Джессика Джонс / Marvel's Jessica Jones / Сезон: 1 / Серии: 1-13 из 13 (С.Дж. Кларксон, Дэвид Петрарка, Стивен Серджик) [2015, фантастика, боевик, криминал, драма, WEBRip 720p] Original + Subs (Rus (Notabenoid), Eng, Fre, Ger, Spa) Galfimbul 3475224004232.37 GB 0 0 1450088964

13:29

14-Дек-15

Зарубежные сериалы ·· Джессика Джонс / Marvel's Jessica Jones / Сезон: 1 / Серии: 1-13 из 13 (С.Дж. Кларксон, Дэвид Петрарка, Стивен Серджик) [2015, фантастика, боевик, криминал, драма, WEBRip 720p] DVO (DubDragProject) + Original Galfimbul 3571445664033.26 GB 0 0 1448827993

23:13

29-Ноя-15

Зарубежные сериалы ·· Джессика Джонс / Marvel's Jessica Jones / Сезон: 1 / Серии: 1-13 из 13 (С.Дж. Кларксон, Дэвид Петрарка, Стивен Серджик) [2015, фантастика, боевик, драма, криминал, WEBRip 720p] Original + Subs (Rus (Notabenoid), Eng) Galfimbul 1689960068815.74 GB 0 0 1448657709

23:55

27-Ноя-15

Зарубежные сериалы ·· Джессика Джонс / Marvel's Jessica Jones / Сезон: 1 / Серии: 1-13 из 13 (С.Дж. Кларксон, Дэвид Петрарка, Стивен Серджик) [2015, фантастика, боевик, драма, криминал, WEBRip 720p] Original + Subs (Rus (Notabenoid), Eng) Galfimbul 1154948772910.76 GB 0 0 1448639676

18:54

27-Ноя-15

Зарубежные сериалы ·· Джессика Джонс / Marvel's Jessica Jones / Сезон: 1 / Серии: 1-13 из 13 (С.Дж. Кларксон, Дэвид Петрарка, Стивен Серджик) [2015, Триллер, драма, детектив WEBRip 720p] MVO (NewStudio) + Original Galfimbul 1881988121017.53 GB 0 0 1448473809

20:50

25-Ноя-15

Зарубежные сериалы ·· Джессика Джонс / Marvel's Jessica Jones / Сезон: 1 / Серии: 1-12 из 13 (С.Дж. Кларксон / S.J. Clarkson) [2015, фантастика, боевик, драма, криминал, WEBRip 1080p] MVO (LostFilm) + Original + Subs (Rus, Eng) Galfimbul 6153821036057.31 GB 0 0 1452116797

00:46

7-Янв-16

Зарубежные сериалы ·· Джессика Джонс / Marvel's Jessica Jones / Сезон: 1 / Серии: 1-12 из 13 (С.Дж. Кларксон / S.J. Clarkson) [2015, фантастика, боевик, драма, криминал, WEBRip 720p] MVO (LostFilm) + Original + Subs (Rus, Eng) Galfimbul 3287812124930.62 GB 0 0 1452115020

00:17

7-Янв-16

Зарубежные сериалы ·· Джессика Джонс / Marvel's Jessica Jones / Сезон: 1 / Серии: 1-12 из 13 (С.Дж. Кларксон / S.J. Clarkson) [2015, фантастика, боевик, драма, криминал, WEBRip 1080p] MVO (LostFilm) + Original + Subs (Rus, Eng) Galfimbul 6153821036357.31 GB 0 0 1452069970

11:46

6-Янв-16

Зарубежные сериалы ·· Джессика Джонс / Marvel's Jessica Jones / Сезон: 1 / Серии: 1-12 из 13 (С.Дж. Кларксон / S.J. Clarkson) [2015, фантастика, боевик, драма, криминал, WEBRip 720p] MVO (LostFilm) + Original + Subs (Rus, Eng) Galfimbul 3287812124930.62 GB 0 0 1452069952

11:45

6-Янв-16

Зарубежные сериалы ·· Джессика Джонс / Marvel's Jessica Jones / Сезон: 1 / Серии: 1-10 из 13 (С.Дж. Кларксон / S.J. Clarkson) [2015, фантастика, боевик, драма, криминал, WEBRip 720p] MVO (LostFilm) + Original + Subs (Rus, Eng) Galfimbul 2743725190825.55 GB 0 0 1451840374

19:59

3-Янв-16

Зарубежные сериалы ·· Джессика Джонс / Marvel's Jessica Jones / Сезон: 1 / Серии: 1-10 из 13 (С.Дж. Кларксон / S.J. Clarkson) [2015, фантастика, боевик, драма, криминал, WEBRip 1080p] MVO (LostFilm) + Original + Subs (Rus, Eng) Galfimbul 5143714392347.9 GB 0 0 1451838404

19:26

3-Янв-16

Зарубежные сериалы ·· Джессика Джонс / Marvel's Jessica Jones / Сезон: 1 / Серии: 1-7 из 13 (С.Дж. Кларксон / S.J. Clarkson) [2015, фантастика, боевик, драма, криминал, WEBRip 1080p] MVO (LostFilm) + Original + Subs (Rus, Eng) Galfimbul 3658430494834.07 GB 0 0 1451206378

11:52

27-Дек-15

Зарубежные сериалы ·· Джессика Джонс / Marvel's Jessica Jones / Сезон: 1 / Серии: 1-7 из 13 (С.Дж. Кларксон / S.J. Clarkson) [2015, фантастика, боевик, драма, криминал, WEBRip 720p] MVO (LostFilm) + Original + Subs (Rus, Eng) Galfimbul 1954411911518.2 GB 0 0 1451203581

11:06

27-Дек-15

Зарубежные сериалы ·· Джессика Джонс / Marvel's Jessica Jones / Сезон: 1 / Серии: 1-6 из 13 (С.Дж. Кларксон / S.J. Clarkson) [2015, фантастика, боевик, драма, криминал, WEBRip 1080p] MVO (LostFilm) + Original + Subs (Rus, Eng) Galfimbul 3137326227829.22 GB 0 0 1450973592

19:13

24-Дек-15

Еще никто не оставлял запись к записи скачать торрент Джессика Джонс Marvels Jessica Jones . Будь первым!

!Обратная связь