Eric Clapton - Planes Trains and Eric.
Download Movie

Скачать через торрент Тюрьма Вентворт Wentworth Фильм бесплатно в хорошем качестве torrent

Скачивайте на UnionPeer.org фильмы через торрент без регистрации. Новинки кино в хорошем качестве через торрент. На UnionPeer.org можно скачать через торрент фильмы 2014 и 2015 годов. Самые новые фильмы.

Скачать торрент Тюрьма Вентворт Wentworth бесплатно через .torrent фильм мультфильм сериал

Статистика раздачи
Размер:  26.76 GB   |    Зарегистрирован:  3 дня   |    .torrent скачан:  24 раза   |   
Раздают:  1  
   
загрузка...
 
Автор Сообщение

Galfimbul

avatar Galfimbul


Тюрьма Вентворт / Wentworth

Оригинальное название: Wentworth
Русское название: Тюрьма Вентворт
Год выпуска: 2017
Страна: США
Жанр: Драма, криминал
Продолжительность: ~55 мин.
Перевод: Профессиональный (многоголосый закадровый) Good People
Субтитры: нет
Режиссёр: Кевин Карлин, Катрин Миллар, Стив Джодрелл
В ролях: Николь Да Силва, Памела Рэйб, Кейт Эткинсон, Селия Айрлэнд, Шарина Клэнтон, Робби Магасива, Катрина Милошевич, Сократис Отто, Либби Тэннер и другие
Описание: Вентворт — драматический сериал с очень динамичным и захватывающим сюжетом о сотрудниках и заключенных женской тюрьмы в Австралии. Здесь существуют свои правила выживания, несоблюдение которых может стоить жизни. Каждая серия — это история жизни одного из героев. Мы лучше узнаем о его характере, об обстоятельствах жизни, которые привели его в тюрьму. И оказывается, что разница между заключенными и служащими тюрьмы не такая уже большая, и те, и другие, являются узниками, только каждый по-своему.
Сэмпл
Качество: BDRip 720p
Формат: MKV
Видео кодек: AVC
Аудио кодек: AC3, DTS
Видео: 1280x720 (16:9), 24 fps, ~1500kbps, 0.044 bit/pixel
Аудио 1: Dolby AC3 48000Hz stereo 192Kbps Русский
Аудио 2: DTS 48000Hz 5.1 1500Kbps Оригинал
Реклама: Присутствует звуковая (два раза в начале и конце по 12 сек.)
General
Unique ID                   : 202759276497947322536289628429321688739 (0x988A042666ECC63490FA09AA1832D6A3)
Complete name               : Wentworth.S05E01.Scars.720p.BluRay.DD2.0.x264-GoodPeople.mkv
Format                      : Matroska
Format version              : Version 2
File size                   : 2.24 GiB
Duration                    : 51mn 13s
Overall bit rate            : 6 247 Kbps
Encoded date                : UTC 2018-04-16 15:34:14
Writing application         : mkvmerge v5.4.0 ('Piper') built on Mar 10 2012 13:34:39
Writing library             : libebml v1.2.3 + libmatroska v1.3.0
DURATION                    : 00:51:13.323000000
NUMBER_OF_FRAMES            : 288124
NUMBER_OF_BYTES             : 579705552
_STATISTICS_WRITING_APP     : mkvmerge v13.0.0 ('The Juggler') 64bit
_STATISTICS_WRITING_DATE_UT : 2018-01-15 08:01:37
_STATISTICS_TAGS            : BPS DURATION NUMBER_OF_FRAMES NUMBER_OF_BYTES

Video
ID                          : 1
Format                      : AVC
Format/Info                 : Advanced Video Codec
Format profile              : [email protected]
Format settings, CABAC      : Yes
Format settings, ReFrames   : 5 frames
Codec ID                    : V_MPEG4/ISO/AVC
Duration                    : 51mn 13s
Bit rate                    : 4 546 Kbps
Width                       : 1 280 pixels
Height                      : 720 pixels
Display aspect ratio        : 16:9
Frame rate mode             : Constant
Frame rate                  : 25.000 fps
Color space                 : YUV
Chroma subsampling          : 4:2:0
Bit depth                   : 8 bits
Scan type                   : Progressive
Bits/(Pixel*Frame)          : 0.197
Stream size                 : 1.58 GiB (71%)
Writing library             : x264 core 155 r2893 b00bcaf
Encoding settings           : cabac=1 / ref=5 / deblock=1:0:0 / analyse=0x3:0x133 / me=umh / subme=8 / psy=1 / psy_rd=1.00:0.00 / mixed_ref=1 / me_range=16 / chroma_me=1 / trellis=1 / 8x8dct=1 / cqm=0 / deadzone=21,11 / fast_pskip=0 / chroma_qp_offset=-2 / threads=12 / lookahead_threads=2 / sliced_threads=0 / nr=0 / decimate=1 / interlaced=0 / bluray_compat=0 / constrained_intra=0 / bframes=3 / b_pyramid=2 / b_adapt=1 / b_bias=0 / direct=1 / weightb=1 / open_gop=0 / weightp=2 / keyint=250 / keyint_min=25 / scenecut=40 / intra_refresh=0 / rc_lookahead=40 / rc=2pass / mbtree=1 / bitrate=4546 / ratetol=1.0 / qcomp=0.60 / qpmin=0 / qpmax=69 / qpstep=4 / cplxblur=20.0 / qblur=0.5 / ip_ratio=1.40 / aq=1:1.00
Language                    : English
Default                     : Yes
Forced                      : No
DURATION                    : 00:51:13.360000000
NUMBER_OF_FRAMES            : 76834
NUMBER_OF_BYTES             : 1745561138
_STATISTICS_WRITING_APP     : mkvmerge v13.0.0 ('The Juggler') 64bit
_STATISTICS_WRITING_DATE_UT : 2018-01-15 08:01:37
_STATISTICS_TAGS            : BPS DURATION NUMBER_OF_FRAMES NUMBER_OF_BYTES

Audio #1
ID                          : 2
Format                      : AC-3
Format/Info                 : Audio Coding 3
Mode extension              : CM (complete main)
Format settings, Endianness : Big
Codec ID                    : A_AC3
Duration                    : 51mn 13s
Bit rate mode               : Constant
Bit rate                    : 192 Kbps
Channel(s)                  : 2 channels
Channel positions           : Front: L R
Sampling rate               : 48.0 KHz
Compression mode            : Lossy
Stream size                 : 70.3 MiB (3%)
Language                    : Russian
Default                     : Yes
Forced                      : No

Audio #2
ID                          : 3
Format                      : DTS
Format/Info                 : Digital Theater Systems
Mode                        : 16
Format settings, Endianness : Big
Codec ID                    : A_DTS
Duration                    : 51mn 13s
Bit rate mode               : Constant
Bit rate                    : 1 509 Kbps
Channel(s)                  : 2 channels
Channel positions           : Front: L R
Sampling rate               : 48.0 KHz
Bit depth                   : 16 bits
Compression mode            : Lossy
Stream size                 : 553 MiB (24%)
Default                     : No
Forced                      : No


Трекер:  [ 16-Апр-2018 20:18 ]

  

Скачать .torrent

Размер .torrent файла 68 KB


Размер: 26.76 GB
Хэш (hash) релиза: 6e8cc7f62dbacb745f240468bd72aa86bb6fea01
Подписка на обновления:

Торренты, похожие на Тюрьма Вентворт Wentworth скачать торрент

Форум Название Автор Размер S L Добавлен
Зарубежные сериалы ·· Тюрьма Вентворт / Уэнтуорт / Wentworth / Сезон: 5 / Серия: 1-12 из 10 (Кевин Карлин, Катрин Миллар, Стив Джодрелл) [2017, Австралия, Драма, криминал, HDRip] MVO (Good People) + Original Galfimbul 75559321607.04 GB 0 0 1523958492

12:48

17-Апр-18

Еще никто не оставлял запись к записи скачать торрент Тюрьма Вентворт Wentworth . Будь первым!

!Обратная связь