Erich Bergen
19 files

Скачать через торрент Рита Rita Фильм бесплатно в хорошем качестве torrent

Скачивайте на UnionPeer.org фильмы через торрент без регистрации. Новинки кино в хорошем качестве через торрент. На UnionPeer.org можно скачать через торрент фильмы 2014 и 2015 годов. Самые новые фильмы.

Скачать торрент Рита Rita бесплатно через .torrent фильм мультфильм сериал

Статистика раздачи
Размер:  11.72 GB   |    Зарегистрирован:  7 дней   |    .torrent скачан:  22 раза   |   
Раздают:  1  
   
загрузка...
 
Автор Сообщение

Galfimbul

avatar Galfimbul


Рита - Четвёртый сезон
Rita - Den fjerde sæson
Год выпуска: 2017
Страна: Дания
Производство: TV 2
Жанр: трагикомедия
Продолжительность: 00:45:00
Перевод: Любительский (двухголосый закадровый) Jimmy J.
Автор идеи: Кристиан Торп / Christian Torpe
В ролях: Милле Динесен, Лизе Бааструп, Николай Грот, Эллен Хиллингсо, Карстен Бьорнлунн, Александр Виллауме, Мортен Ванг Симонсен, Оле Дюпон, Фердинанд Глад Бах, Сара Йорт Дитлевсен и др.
Описание: Фильм рассказывает о дрянной училке, которая пытается совместить работу преподавателя с воспитанием своих половозрелых отпрысков. Секс с директором школы, проблемы с учениками и своими собственными детьми, но несмотря на все эти сложности — Рита не сдается, ведь характер у нее что надо.
Все раздачи | КиноПоиск | IMDb | Sample
<div class="post-box-default">
<div class="post-box">Рекламы нет</div>
</div>
Качество: WEBRip 1080p
Формат: MKV
Видео: x264, 1920x1080 (16:9), 25.000 fps, ~5110 kbps avg, 0.099 bit/pixel
Аудио #1: Russian 48.0 KHz, AC3, 2 (Front: L R) ch, ~192.00 kbps avg |Jimmy J.|
Аудио #2: Dansk 48.0 KHz, AC3, 3/2 (L,C,R,l,r) + LFE ch, ~384.00 kbps avg |Original|
Субтитры: датские
Сборка и работа со звуком - whip93.
General
Unique ID : 132618437892206031393596360914681571479 (0x63C561CF6F2CA434CFF0DE8CB969A897)
Complete name : C:\Сериалы\Rita - The Complete 4th Season - whip93\Rita.S04E01.PastPresent.1080p.WEBRip.DD2.0.x264.-whip93.mkv
Format : Matroska
Format version : Version 4 / Version 2
File size : 1.59 GiB
Duration : 40mn 9s
Overall bit rate mode : Variable
Overall bit rate : 5 665 Kbps
Movie name : Рита | Rita (S04E01) - Release by whip93
Encoded date : UTC 2018-04-16 12:58:20
Writing application : mkvmerge v20.0.0 ('I Am The Sun') 64-bit
Writing library : libebml v1.3.5 + libmatroska v1.4.8
DURATION : 00:39:10.080000000
NUMBER_OF_FRAMES : 514
NUMBER_OF_BYTES : 21128
_STATISTICS_WRITING_APP : mkvmerge v20.0.0 ('I Am The Sun') 64-bit
_STATISTICS_WRITING_DATE_UT : 2018-04-16 12:58:20
_STATISTICS_TAGS : BPS DURATION NUMBER_OF_FRAMES NUMBER_OF_BYTES

Video
ID : 1
Format : AVC
Format/Info : Advanced Video Codec
Format profile : [email protected]
Format settings, CABAC : Yes
Format settings, ReFrames : 3 frames
Codec ID : V_MPEG4/ISO/AVC
Duration : 40mn 9s
Bit rate mode : Variable
Bit rate : 5 110 Kbps
Maximum bit rate : 7 665 Kbps
Width : 1 920 pixels
Height : 1 080 pixels
Display aspect ratio : 16:9
Frame rate mode : Constant
Frame rate : 25.000 fps
Color space : YUV
Chroma subsampling : 4:2:0
Bit depth : 8 bits
Scan type : Progressive
Bits/(Pixel*Frame) : 0.099
Stream size : 1.40 GiB (88%)
Title : SiGMA's WEB-DL
Writing library : x264 core 148
Encoding settings : cabac=1 / ref=3 / deblock=1:0:0 / analyse=0x1:0x111 / me=umh / subme=10 / psy=1 / psy_rd=1.00:0.00 / mixed_ref=1 / me_range=24 / chroma_me=1 / trellis=2 / 8x8dct=0 / cqm=0 / deadzone=21,11 / fast_pskip=1 / chroma_qp_offset=-2 / threads=8 / lookahead_threads=1 / sliced_threads=0 / nr=0 / decimate=1 / interlaced=0 / bluray_compat=0 / stitchable=1 / constrained_intra=0 / bframes=2 / b_pyramid=0 / b_adapt=2 / b_bias=0 / direct=3 / weightb=1 / open_gop=0 / weightp=2 / keyint=50 / keyint_min=26 / scenecut=0 / intra_refresh=0 / rc_lookahead=50 / rc=2pass / mbtree=1 / bitrate=5110 / ratetol=1.0 / qcomp=0.50 / qpmin=6 / qpmax=51 / qpstep=4 / cplxblur=20.0 / qblur=0.5 / vbv_maxrate=7665 / vbv_bufsize=10220 / nal_hrd=vbr / filler=0 / ip_ratio=1.40 / aq=1:1.00
Language : Danish
Default : Yes
Forced : No

Audio #1
ID : 2
Format : AC-3
Format/Info : Audio Coding 3
Mode extension : CM (complete main)
Format settings, Endianness : Big
Codec ID : A_AC3
Duration : 40mn 9s
Bit rate mode : Constant
Bit rate : 192 Kbps
Channel(s) : 2 channels
Channel positions : Front: L R
Sampling rate : 48.0 KHz
Compression mode : Lossy
Stream size : 55.1 MiB (3%)
Title : DVO (Д. Чепусов и А. Соколова)
Language : Russian
Default : Yes
Forced : No

Audio #2
ID : 3
Format : AC-3
Format/Info : Audio Coding 3
Mode extension : CM (complete main)
Format settings, Endianness : Big
Codec ID : A_AC3
Duration : 40mn 9s
Bit rate mode : Constant
Bit rate : 384 Kbps
Channel(s) : 6 channels
Channel positions : Front: L C R, Side: L R, LFE
Sampling rate : 48.0 KHz
Compression mode : Lossy
Stream size : 110 MiB (7%)
Title : Original
Language : Danish
Default : No
Forced : No

Text
ID : 4
Format : UTF-8
Codec ID : S_TEXT/UTF8
Codec ID/Info : UTF-8 Plain Text
Title : Original (SDH)
Language : Danish
Default : No
Forced : No



Трекер:  [ 16-Апр-2018 19:48 ]

  

Скачать .torrent

Размер .torrent файла 59 KB


Размер: 11.72 GB
Хэш (hash) релиза: da0e84d30bef13e92b3cee880432550cc711c999
Подписка на обновления:

Еще никто не оставлял запись к записи скачать торрент Рита Rita . Будь первым!

!Обратная связь