Her Lion Billionaire
Primary Education - 5432 Words

Скачать через торрент [iPad] Погружение Submergence бесплатно русская версия torrent активатор

Статистика раздачи
Размер:  1.74 GB   |    Зарегистрирован:  5 дней   |    .torrent скачан:  19 раз   |   
Раздают:  1  
   
загрузка...
 
Автор Сообщение

Galfimbul

avatar Galfimbul


Погружение / Submergence
«Любовь освобождает»

6.276 / 10 5.80 / 10
Год выпуска: 2017
Страна: Германия, Франция, Испания, США
Жанр: Триллер, драма, мелодрама
Продолжительность: 01:46:43

Перевод: Дублированный (iTunes)
Оригинальная аудиодорожка: Нет
Cубтитры: Нет
Режиссёр: Вим Вендерс
Сценарий: Эрин Дигнам, Дж.М. Ледгард
Продюсер: Жан-Баптист Бабин, Эндрю Бэнкс, Роберт Огден Барнум
Оператор: Бенуа Деби
Композитор: Фернандо Веласкес
Художник: Тьерри Фламан, Виржини Эрнванн, Флориан Мюллер
Монтаж: Тони Фрошхаммер
В ролях: Джеймс МакЭвой, Алисия Викандер, Александр Сиддиг, Селин Джонс, Реда Катеб, Мохамед Хакимшади, Клементин Баэрт, Адама Барри, Жюльен Буаниш, Лоик Корбери

Бюджет: $15 000 000
Сборы в России: $167 316

Мировая премьера: 10 сентября 2017
Премьера (РФ): 1 марта 2018, «Парадиз»

Описание: Он — офицер разведки, она — ученый-океанолог. Ему предстояла смертельно опасная спецоперация в Сомали, ей — глубоководная экспедиция. И теперь, в минуту испытаний пред лицом смерти — в плену у боевиков, в батискафе на глубине океана — все, что у них есть, — это их любовь…
Качество исходника: WEB-DL 1080p (NNMClub)
Качество: WEB-DLRip
Тип: SD (576p)
Контейнер: M4V
Видео: H.264, 1024x560, 1.85:1, 2 200 Kbps, 23.817 fps

Аудио: Русский/Дублированный (iTunes), AAC / 2.0 / 128 Kbps / 48.0 KHz
Sort Name: Submergence
XID: Apple:vendor_id:2017-943779
contentID: 1354785182
Copyright: © 2017 Backup Studio, Neue Road Movies, Morena Films and Submergence AIE. All Rights Reserved.
Screenwriters: Эрин Дигнам, Дж.М. Ледгард
Producers: Жан-Баптист Бабин, Эндрю Бэнкс, Роберт Огден Барнум
Director: Вим Вендерс
Cast: Джеймс МакЭвой, Алисия Викандер, Александр Сиддиг, Селин Джонс, Реда Катеб, Мохамед Хакимшади, Клементин Баэрт, Адама Барри, Жюльен Буаниш, Лоик Корбери
Studio: Backup Films; Morena Films; Neue Road Movies
Rating: 1
Long Description: Он — офицер разведки, она — ученый-океанолог. Ему предстояла смертельно опасная спецоперация в Сомали, ей — глубоководная экспедиция. И теперь, в минуту испытаний пред лицом смерти — в плену у боевиков, в батискафе на глубине океана — все, что у них есть, — это их любовь…
Description: Он — офицер разведки, она — ученый-океанолог. Ему предстояла смертельно опасная спецоперация в Сомали, ей — глубоководная экспедиция.
Release Date: 2018-04-13T07:00:00Z
Genre: Thriller
Artist: Wim Wenders
Name: Submergence
General
Complete name : /Users/imac/HandBrake/Submergence.(SD).(pk).m4v
Format : MPEG-4
Codec ID : M4V
File size : 1.74 GiB
Duration : 1h 46mn
Overall bit rate mode : Variable
Overall bit rate : 2 327 Kbps
Movie name : Submergence
Performer : Wim Wenders
Director : Вим Вендерс
Actor : Джеймс МакЭвой / Алисия Викандер / Александр Сиддиг / Селин Джонс / Реда Катеб / Мохамед Хакимшади / Клементин Баэрт / Адама Барри / Жюльен Буаниш / Лоик Корбери
Screenplay by : Эрин Дигнам / Дж.М. Ледгард
Producer : Жан-Баптист Бабин / Эндрю Бэнкс / Роберт Огден Барнум
Production studio : Backup Films; Morena Films; Neue Road Movies
Genre : Thriller
ContentType : Short Film
Description : Он — офицер разведки, она — ученый-океанолог. Ему предстояла смертельно опасная спецоперация в Сомали, ей — глубоководная экспедиция.
Recorded date : UTC 2018-04-13 07:00:00
Encoded date : UTC 2018-04-16 12:19:14
Tagged date : UTC 2018-04-16 12:23:12
Copyright : © 2017 Backup Studio, Neue Road Movies, Morena Films and Submergence AIE. All Rights Reserved.
Cover : Yes
Rating : None
Title/Sort : Submergence
LongDescription : Он — офицер разведки, она — ученый-океанолог. Ему предстояла смертельно опасная спецоперация в Сомали, ей — глубоководная экспедиция. И теперь, в минуту испытаний пред лицом смерти — в плену у боевиков, в батискафе на глубине океана — все, что у них есть, — это их любовь…
AppleStoreCatalogID : 1354785182
Vendor : Apple:vendor_id:2017-943779
ContentRating : mpaa|NR|000|

Video #1
ID : 1
Format : AVC
Format/Info : Advanced Video Codec
Format profile : [email protected]
Format settings, CABAC : Yes
Format settings, ReFrames : 9 frames
Codec ID : avc1
Codec ID/Info : Advanced Video Coding
Duration : 1h 46mn
Source duration : 1h 46mn
Bit rate : 2 200 Kbps
Width : 1 024 pixels
Height : 560 pixels
Display aspect ratio : 1.85:1
Frame rate mode : Variable
Frame rate : 23.817 fps
Minimum frame rate : 18.152 fps
Maximum frame rate : 23.981 fps
Color space : YUV
Chroma subsampling : 4:2:0
Bit depth : 8 bits
Scan type : Progressive
Bits/(Pixel*Frame) : 0.161
Stream size : 1.64 GiB (94%)
Source stream size : 1.64 GiB (94%)
Title : Main Program
Writing library : x264 core 155 r2893 b00bcaf
Encoding settings : cabac=1 / ref=9 / deblock=1:0:0 / analyse=0x3:0x113 / me=umh / subme=9 / psy=1 / psy_rd=1.00:0.00 / mixed_ref=1 / me_range=32 / chroma_me=1 / trellis=1 / 8x8dct=1 / cqm=0 / deadzone=21,11 / fast_pskip=1 / chroma_qp_offset=-2 / threads=17 / lookahead_threads=1 / sliced_threads=0 / nr=0 / decimate=1 / interlaced=0 / bluray_compat=0 / constrained_intra=0 / bframes=6 / b_pyramid=2 / b_adapt=2 / b_bias=0 / direct=1 / weightb=1 / open_gop=0 / weightp=2 / keyint=240 / keyint_min=24 / scenecut=40 / intra_refresh=0 / rc_lookahead=40 / rc=2pass / mbtree=1 / bitrate=2200 / ratetol=1.0 / qcomp=0.60 / qpmin=0 / qpmax=69 / qpstep=4 / cplxblur=20.0 / qblur=0.5 / ip_ratio=1.40 / aq=1:1.00
Language : English
Encoded date : UTC 2018-04-16 12:19:14
Tagged date : UTC 2018-04-16 12:19:19
Color range : Limited
Color primaries : BT.709
Transfer characteristics : BT.709
Matrix coefficients : BT.709

Video #2
ID : 4
Format : JPEG
Codec ID : jpeg
Duration : 1h 46mn
Bit rate mode : Variable
Bit rate : 1 131 bps
Width : 640 pixels
Height : 350 pixels
Display aspect ratio : 1.85:1
Frame rate mode : Variable
Frame rate : 0.003 fps
Minimum frame rate : 0.002 fps
Maximum frame rate : 0.004 fps
Color space : YUV
Chroma subsampling : 4:2:0
Bit depth : 8 bits
Compression mode : Lossy
Bits/(Pixel*Frame) : 1.683
Stream size : 783 KiB (0%)
Title : Chapter Images
Language : English
Encoded date : UTC 2018-04-16 12:19:26
Tagged date : UTC 2018-04-16 12:19:26

Audio
ID : 2
Format : AAC
Format/Info : Advanced Audio Codec
Format profile : LC
Codec ID : 40
Duration : 1h 46mn
Source duration : 1h 46mn
Bit rate mode : Variable
Bit rate : 122 Kbps
Maximum bit rate : 168 Kbps
Channel(s) : 2 channels
Channel positions : Front: L R
Sampling rate : 48.0 KHz
Compression mode : Lossy
Stream size : 93.3 MiB (5%)
Source stream size : 93.3 MiB (5%)
Title : Russian Stereo
Language : Russian
Encoded date : UTC 2018-04-16 12:19:14
Tagged date : UTC 2018-04-16 12:19:21

Menu #1
00:00:00.000 : 1
00:05:51.400 : 2
00:13:00.240 : 3
00:18:05.920 : 4
00:25:05.519 : 5
00:30:35.679 : 6
00:37:59.477 : 7
00:45:36.597 : 8
00:53:04.517 : 9
00:57:17.156 : 10
01:03:15.636 : 11
01:10:00.116 : 12
01:16:19.756 : 13
01:22:11.556 : 14
01:28:08.436 : 15
01:32:53.356 : 16
01:39:04.156 : 17

Menu #2
ID : 3
Codec ID : text
Duration : 1h 46mn
Language : English
Encoded date : UTC 2018-04-16 12:19:21
Tagged date : UTC 2018-04-16 12:19:21
00:00:00.000 : 1
00:05:51.400 : 2
00:13:00.240 : 3
00:18:05.920 : 4
00:25:05.519 : 5
00:30:35.679 : 6
00:37:59.477 : 7
00:45:36.597 : 8
00:53:04.517 : 9
00:57:17.156 : 10
01:03:15.636 : 11
01:10:00.116 : 12
01:16:19.756 : 13
01:22:11.556 : 14
01:28:08.436 : 15
01:32:53.356 : 16
01:39:04.156 : 17
Bit rate mode : VBR
x264 [info]: frame I:1261  Avg QP:14.40  size: 76653
x264 [info]: frame P:36531 Avg QP:16.91  size: 24082
x264 [info]: frame B:114730 Avg QP:19.24  size:  6829
x264 [info]: consecutive B-frames:  2.0%  3.0%  7.6% 42.0% 22.1% 20.0%  3.4%
x264 [info]: mb I  I16..4: 10.2% 69.4% 20.4%
x264 [info]: mb P  I16..4:  1.4%  6.8%  1.5%  P16..4: 41.1% 25.5% 14.4%  0.0%  0.0%    skip: 9.2%
x264 [info]: mb B  I16..4:  0.1%  0.6%  0.2%  B16..8: 40.0%  8.7%  2.1%  direct: 4.7%  skip:43.5%  L0:43.6% L1:47.1% BI: 9.3%
x264 [info]: 8x8 transform intra:69.4% inter:69.1%
x264 [info]: coded y,uvDC,uvAC intra: 83.6% 80.7% 55.0% inter: 25.8% 19.9% 2.0%
x264 [info]: i16 v,h,dc,p: 38% 16%  8% 37%
x264 [info]: i8 v,h,dc,ddl,ddr,vr,hd,vl,hu:  9%  9%  5% 10% 14% 14% 14% 12% 14%
x264 [info]: i4 v,h,dc,ddl,ddr,vr,hd,vl,hu:  8%  9%  3%  9% 14% 14% 16% 11% 16%
x264 [info]: i8c dc,h,v,p: 42% 25% 18% 15%
x264 [info]: Weighted P-Frames: Y:3.8% UV:1.6%
x264 [info]: ref P L0: 50.7%  9.4% 17.6%  6.3%  5.2%  3.7%  3.3%  1.9%  1.9%  0.1%  0.0%
x264 [info]: ref B L0: 75.5% 11.2%  5.5%  2.6%  1.9%  1.8%  1.0%  0.4%
x264 [info]: ref B L1: 95.3%  4.7%
x264 [info]: kb/s:2198.59

Релиз подготовлен для просмотра на Apple TV, iPad, iPhone, iPod Touch.
Для просмотра данного релиза на компьютере с ОС Windows рекомендуется использовать VLC media player

Трекер:  [ 16-Апр-2018 15:36 ]

  

Скачать .torrent

Размер .torrent файла 35 KB


Размер: 1.74 GB
Хэш (hash) релиза: 489b72bbc4bf97a240eff4be1c8baf5139336001

Еще никто не оставлял запись к записи скачать торрент [iPad] Погружение Submergence . Будь первым!

!Обратная связь