Odtwarzacz bez limitów
Emily Blunt, Zazie Beetz, Ryan Reiss, Steve Smith

Скачать через торрент Большая игра Mollys Game бесплатно русская версия torrent активатор

Статистика раздачи
Размер:  4.51 GB   |    Зарегистрирован:  10 дней   |    .torrent скачан:  17 раз   |   
Раздают:  1  
   
загрузка...
 
Автор Сообщение

Galfimbul

avatar Galfimbul


Большая игра / Molly's Game
«Deal with her»

7.589 / 10 7.50 / 10
Год выпуска: 2017
Страна: Китай, США, Канада
Жанр: Драма, криминал, биография
Продолжительность: 02:20:16

Перевод: Дублированный (iTunes)
Оригинальная аудиодорожка: Нет
Cубтитры: Нет
Режиссёр: Аарон Соркин
Сценарий: Аарон Соркин, Молли Блум
Продюсер: Марк Гордон, Мэтт Джексон, Эми Паскаль
Оператор: Шарлотта Брюус Кристенсен
Композитор: Дэниэл Пембертон
Художник: Дэвид Уоско, Брандт Гордон, Сьюзэн Лайолл
Монтаж: Алан Баумгартен, Эллиот Грэхэм, Джош Шеффер
В ролях: Джессика Честейн, Идрис Эльба, Кевин Костнер, Майкл Сера, Джереми Стронг, Крис О’Дауд, Дж.С. МакКензи, Брайан Д’Арси Джеймс, Билл Кэмп, Грэм Грин

Сборы в США: $28 780 744
Сборы в России: $1 464 252

Мировая премьера: 8 сентября 2017
Премьера (РФ): 11 января 2018, «Capella Film»

Описание: Молли Блум называли Принцессой покера. Она построила самое дорогое подпольное казино в Голливуде. Каждую минуту здесь шли ва-банк кинозвезды, шейхи, миллиардеры. Большие деньги пахнут кровью. Как выжить, когда за тобой охотится мафия и ФБР?
Качество исходника: WEB-DL 720p (NNMClub)
Качество: WEB-DL
Тип: HD (720p)
Контейнер: M4V
Видео: H.264, 1280x536, 2.40:1, 4 059 Kbps, 24.000 fps

Аудио 1: Русский/Дублированный (iTunes), AAC / 2.0 / 160 Kbps / 48.0 KHz
Аудио 2: Русский/Дублированный (iTunes), AC-3 / 5.1 / 384 Kbps / 48.0 KHz
Sort Name: Molly\'s Game
XID: Apple:vendor_id:2017-976636
contentID: 1326336103
Copyright: © 2017 STX FINANCING, LLC. ALL RIGHTS RESERVED.
Screenwriters: Аарон Соркин, Молли Блум
Producers: Марк Гордон, Мэтт Джексон, Эми Паскаль
Director: Аарон Соркин
Cast: Джессика Честейн, Идрис Эльба, Кевин Костнер, Майкл Сера, Джереми Стронг, Крис О’Дауд, Дж.С. МакКензи, Брайан Д’Арси Джеймс, Билл Кэмп, Грэм Грин
Studio: STX Entertainment
Rating: 5
Long Description: Молли Блум называли Принцессой покера. Она построила самое дорогое подпольное казино в Голливуде. Каждую минуту здесь шли ва-банк кинозвезды, шейхи, миллиардеры. Большие деньги пахнут кровью. Как выжить, когда за тобой охотится мафия и ФБР?
Description: Молли Блум называли Принцессой покера. Она построила самое дорогое подпольное казино в Голливуде. Каждую минуту здесь шли ва-банк кинозвезды, шейхи, миллиардеры. Большие деньги пахнут кровью. Как выжить, когда за тобой охотится мафия и ФБР?
Release Date: 2017-09-08T08:00:00Z
Genre: Drama
Artist: Aaron Sorkin
Name: Molly\'s Game
General
Complete name                            : /Users/imac/HandBrake/Mollys.Game.WEB-DL.720p.m4v
Format                                   : MPEG-4
Codec ID                                 : M4V  (M4V /M4A /mp42/isom)
File size                                : 4.51 GiB
Duration                                 : 2h 20mn
Overall bit rate mode                    : Variable
Overall bit rate                         : 4 602 Kbps
Movie name                               : Molly\'s Game
Performer                                : Aaron Sorkin
Director                                 : Аарон Соркин
Actor                                    : Джессика Честейн / Идрис Эльба / Кевин Костнер / Майкл Сера / Джереми Стронг / Крис О’Дауд / Дж.С. МакКензи / Брайан Д’Арси Джеймс / Билл Кэмп / Грэм Грин
Screenplay by                            : Аарон Соркин / Молли Блум
Producer                                 : Марк Гордон / Мэтт Джексон / Эми Паскаль
Production studio                        : STX Entertainment
Genre                                    : Drama
ContentType                              : Short Film
Description                              : Молли Блум называли Принцессой покера. Она построила самое дорогое подпольное казино в Голливуде. Каждую минуту здесь шли ва-банк кинозвезды, шейхи, миллиардеры. Большие деньги пахнут кровью. Как выжить, когда за тобой охотится мафия и ФБР?
Recorded date                            : UTC 2017-09-08 08:00:00
Encoded date                             : UTC 2018-04-16 11:31:43
Tagged date                              : UTC 2018-04-16 11:35:03
Copyright                                : © 2017 STX FINANCING, LLC. ALL RIGHTS RESERVED.
Cover                                    : Yes
Rating                                   : None
Title/Sort                               : Molly\'s Game
LongDescription                          : Молли Блум называли Принцессой покера. Она построила самое дорогое подпольное казино в Голливуде. Каждую минуту здесь шли ва-банк кинозвезды, шейхи, миллиардеры. Большие деньги пахнут кровью. Как выжить, когда за тобой охотится мафия и ФБР?
HDVideo                                  : Yes
AppleStoreCatalogID                      : 1326336103
Vendor                                   : Apple:vendor_id:2017-976636
ContentRating                            : mpaa|R|400|

Video #1
ID                                       : 1
Format                                   : AVC
Format/Info                              : Advanced Video Codec
Format profile                           : [email protected]
Format settings                          : 2 Ref Frames
Format settings, CABAC                   : No
Format settings, ReFrames                : 2 frames
Codec ID                                 : avc1
Codec ID/Info                            : Advanced Video Coding
Duration                                 : 2h 20mn
Bit rate                                 : 4 059 Kbps
Width                                    : 1 280 pixels
Height                                   : 536 pixels
Display aspect ratio                     : 2.40:1
Frame rate mode                          : Variable
Frame rate                               : 24.000 fps
Minimum frame rate                       : 23.810 fps
Maximum frame rate                       : 24.390 fps
Color space                              : YUV
Chroma subsampling                       : 4:2:0
Bit depth                                : 8 bits
Scan type                                : Progressive
Bits/(Pixel*Frame)                       : 0.247
Stream size                              : 3.98 GiB (88%)
Title                                    : Main Program
Language                                 : English
Encoded date                             : UTC 2018-04-16 11:31:43
Tagged date                              : UTC 2018-04-16 11:34:00
Color range                              : Limited
Color primaries                          : BT.709
Transfer characteristics                 : BT.709
Matrix coefficients                      : BT.709
Menus                                    : 4,5

Video #2
ID                                       : 5
Format                                   : JPEG
Codec ID                                 : jpeg
Duration                                 : 2h 20mn
Bit rate mode                            : Variable
Bit rate                                 : 227 bps
Width                                    : 640 pixels
Height                                   : 268 pixels
Display aspect ratio                     : 2.40:1
Frame rate mode                          : Constant
Frame rate                               : 0.001 fps
Color space                              : YUV
Chroma subsampling                       : 4:2:0
Bit depth                                : 8 bits
Compression mode                         : Lossy
Bits/(Pixel*Frame)                       : 1.323
Stream size                              : 443 KiB (0%)
Title                                    : Chapter Images
Language                                 : English
Default                                  : No
Encoded date                             : UTC 2018-04-16 11:34:04
Tagged date                              : UTC 2018-04-16 11:34:04
Menu For                                 : 1
ColorSpace_ICC                           : RGB

Audio #1
ID                                       : 2
Format                                   : AAC
Format/Info                              : Advanced Audio Codec
Format profile                           : LC
Codec ID                                 : mp4a-40-2
Duration                                 : 2h 20mn
Source duration                          : 2h 20mn
Bit rate mode                            : Variable
Bit rate                                 : 152 Kbps
Maximum bit rate                         : 237 Kbps
Channel(s)                               : 2 channels
Channel positions                        : Front: L R
Sampling rate                            : 48.0 KHz
Frame rate                               : 46.875 fps (1024 SPF)
Compression mode                         : Lossy
Stream size                              : 152 MiB (3%)
Source stream size                       : 152 MiB (3%)
Title                                    : Russian Stereo
Language                                 : Russian
Default                                  : Yes
Alternate group                          : 1
Encoded date                             : UTC 2018-04-16 11:31:43
Tagged date                              : UTC 2018-04-16 11:32:09
Fallback From                            : 3

Audio #2
ID                                       : 3
Format                                   : AC-3
Format/Info                              : Audio Coding 3
Codec ID                                 : ac-3
Duration                                 : 2h 20mn
Bit rate mode                            : Constant
Bit rate                                 : 384 Kbps
Channel(s)                               : 6 channels
Channel positions                        : Front: L C R, Side: L R, LFE
Sampling rate                            : 48.0 KHz
Frame rate                               : 31.250 fps (1536 SPF)
Bit depth                                : 16 bits
Compression mode                         : Lossy
Stream size                              : 385 MiB (8%)
Title                                    : Russian DD 5.1
Language                                 : Russian
Service kind                             : Complete Main
Default                                  : Inherited From: 2
Alternate group                          : 1
Encoded date                             : UTC 2018-04-16 11:31:43
Tagged date                              : UTC 2018-04-16 11:32:09
Fallback To                              : 2

Menu #1
00:00:00.000                             : Глава 1
00:07:41.083                             : Глава 2
00:16:00.874                             : Глава 3
00:23:25.874                             : Глава 4
00:33:18.165                             : Глава 5
00:41:36.165                             : Глава 6
00:49:57.998                             : Глава 7
00:59:16.498                             : Глава 8
01:06:53.998                             : Глава 9
01:15:05.414                             : Глава 10
01:22:30.205                             : Глава 11
01:31:05.871                             : Глава 12
01:41:03.871                             : Глава 13
01:51:07.746                             : Глава 14
02:00:55.162                             : Глава 15
02:08:32.162                             : Глава 16

Menu #2
ID                                       : 4
Codec ID                                 : text
Duration                                 : 2h 20mn
Language                                 : English
Encoded date                             : UTC 2018-04-16 11:34:01
Tagged date                              : UTC 2018-04-16 11:34:01
Menu For                                 : 1
00:00:00.000                             : Глава 1
00:07:41.083                             : Глава 2
00:16:00.874                             : Глава 3
00:23:25.874                             : Глава 4
00:33:18.165                             : Глава 5
00:41:36.165                             : Глава 6
00:49:57.998                             : Глава 7
00:59:16.498                             : Глава 8
01:06:53.998                             : Глава 9
01:15:05.414                             : Глава 10
01:22:30.205                             : Глава 11
01:31:05.871                             : Глава 12
01:41:03.871                             : Глава 13
01:51:07.746                             : Глава 14
02:00:55.162                             : Глава 15
02:08:32.162                             : Глава 16
Bit rate mode                            : VBR

Релиз подготовлен для просмотра на Apple TV, iPad, iPhone, iPod Touch.
Для просмотра данного релиза на компьютере с ОС Windows рекомендуется использовать VLC media player

Трекер:  [ 16-Апр-2018 15:06 ]

  

Скачать .torrent

Размер .torrent файла 45 KB


Размер: 4.51 GB
Хэш (hash) релиза: dabfad2ee4631bf72f249ac2a96e90773fc3bc4e

Еще никто не оставлял запись к записи скачать торрент Большая игра Mollys Game . Будь первым!

!Обратная связь