Бразилия / Brazil (1985) BDRip 1080p | P, P2, A | Directors Cut
After the Fire, a Still Small Voice by Evie Wyld EPUB

Скачать через торрент Жар-птица: Глава о Ямато Hi no Tori: Yamato Hen бесплатно Аниме Все серии на русском torrent

Статистика раздачи
Размер:  984 MB   |    Зарегистрирован:  10 дней   |    .torrent скачан:  26 раз   |   
Раздают:  1  
   
загрузка...
 
Автор Сообщение

Galfimbul

avatar Galfimbul


Жар-птица: Глава о Ямато / Hi no Tori: Yamato Hen / The Phoenix: Chapter of Yamato
Страна: Япония
Год выпуска: 1987
Жанр: фэнтези, драма
Тип: Movie
Продолжительность: 1 эп. 48 мин
Режиссёр: Хирата Тосио
Автор оригинала: Тэдзука Осаму
Снято по манге: Hi no Tori: Yamato Hen
Студия: Madhouse Studios
Озвучка:
Двухголосная (муж./жен.) Azazel & Ursula (SHIZA Project)
Субтитры:
русские (внешние) SSA полные
от Near_Dark
английские (встроенные) ASS полные
от A-FanRips
Описание: Что хуже- предать семью или свою любовь? А можно ли вообще предать любовь?
Нет. Что бы то ни было, настоящая любовь- она даже после смерти- не пропадет. И любящий человек из предателя может сам стать жертвой, а свои- легко могут стать предателями, особенно из жажды власти.
Этот OVA создан на основе главы "Chapter of Yamato" манги "Феникс" Тедзуки Осаму, а глава создана на основе одной из легенд ранней истории Японии, вошедшей в Коджики.
Информационные ссылки: AniDB | MyAnimeList | World Art
Качество: DVDRip (R2J)
Релиз/Автор рипа: A-FanRips
Совместимость с бытовыми плеерами: Нет
Наличие линковки: Нет
Тип видео: без хардсаба
Формат: MKV
Видео: x264, 712x480 (анаморф @642x480), (4/3), ~2420кбит/с, 23,976fps, 8 bit
Аудио #1 (внешняя) русская - MP3, 2 ch, 192кбит/с, 48000Hz
Аудио #2 (в контейнере) японская - AC3, 2 ch, 192кбит/с, 48000Hz
* Чтобы смотреть с озвучкой, необходимо из папки Rus sound переписать файл в папку, где находятся видеофайл. Далее, следует запустить плеер и переключиться на mka-дорожку. Подробное описание здесь
* Чтобы смотреть с субтитрами, необходимо из папки Rus subs переписать файл в папку, где находятся видеофайл. В большинстве плееров, одноимённые субтитры подключатся автоматически.

#1 Жар-птица 2772: Космозона любви - п/ф, адаптация манги, 1980
#2 Жар-птица: Глава о Фениксе - п/ф, адаптация манги, 1986
#3 Жар-птица: Глава о Ямато - OVA (1 эп.), адаптация манги, 1987
#4 Жар-птица: Глава о космосе - OVA (1 эп.), адаптация манги, 1987
#5 Жар-птица [ТВ] - ТВ (13 эп.), адаптация манги, 2004
#6 Жар-птица: Глава о платье из перьев - к/ф, адаптация манги, 2004

...4181645 - лучше качество видео
<div class="sp-wrap">
<div class="sp-head folded">Сравнения</div>
<div class="sp-body">Тут

Там
</div>
</div>

Общее
Уникальный идентификатор : 211967107444872845436839917880792405189 (0x9F77614418BF5A66BBAC9DE3419154C5)
Полное имя : C:\Торенты №1\Hi no Tori - Yamato Hen [DVDRip 480p]\[A-FanRips]_Phoenix_-_Yamato_Chapter_[H264_AC3].mkv
Формат : Matroska
Версия формата : Version 2
Размер файла : 918 Мбайт
Продолжительность : 48 м.
Общий поток : 2665 Кбит/сек
Дата кодирования : UTC 2009-11-21 18:42:19
Программа кодирования : mkvmerge v2.9.7 ('Tenderness') built on Jul 1 2009 18:43:35
Библиотека кодирования : libebml v0.7.7 + libmatroska v0.8.1
Attachments : GillSansMTPro-Medium.otf

Видео
Идентификатор : 1
Формат : AVC
Формат/Информация : Advanced Video Codec
Профиль формата : [email protected]
Параметр CABAC формата : Да
Параметр ReFrames формата : 13 кадров
Идентификатор кодека : V_MPEG4/ISO/AVC
Продолжительность : 48 м.
Битрейт : 2420 Кбит/сек
Ширина : 712 пикселей
Высота : 480 пикселей
Соотношение сторон : 4:3
Соотношение сторон в оригинале : 3:2
Режим частоты кадров : Постоянный
Частота кадров : 23,976 (24000/1001) кадра/сек
Цветовое пространство : YUV
Субдискретизация насыщенности : 4:2:0
Битовая глубина : 8 бит
Тип развёртки : Прогрессивная
Бит/(Пиксели*Кадры) : 0.295
Размер потока : 833 Мбайт (91%)
Библиотека кодирования : x264 core 78 r1319 678a703
Настройки программы : cabac=1 / ref=13 / deblock=1:-2:-2 / analyse=0x3:0x133 / me=umh / subme=10 / psy=1 / psy_rd=0.8:0.0 / mixed_ref=1 / me_range=16 / chroma_me=1 / trellis=2 / 8x8dct=1 / cqm=0 / deadzone=21,11 / chroma_qp_offset=-2 / threads=3 / nr=0 / decimate=0 / mbaff=0 / constrained_intra=0 / bframes=3 / b_pyramid=0 / b_adapt=2 / b_bias=0 / direct=1 / wpredb=1 / keyint=250 / keyint_min=25 / scenecut=40 / rc=crf / mbtree=0 / crf=17.0 / qcomp=0.60 / qpmin=10 / qpmax=23 / qpstep=4 / ip_ratio=1.40 / pb_ratio=1.30 / aq=1:0.70
Язык : English
Default : Да
Forced : Нет

Аудио
Идентификатор : 2
Формат : AC-3
Формат/Информация : Audio Coding 3
Расширение режима : CM (complete main)
Параметр Endianness формата : Big
Идентификатор кодека : A_AC3
Продолжительность : 48 м.
Вид битрейта : Постоянный
Битрейт : 192 Кбит/сек
Каналы : 2 канала
Расположение каналов : Front: L R
Частота : 48,0 КГц
Частота кадров : 31,250 кадров/сек (1536 spf)
Метод сжатия : С потерями
Размер потока : 66,1 Мбайт (7%)
Язык : Japanese
Default : Да
Forced : Нет

Текст
Идентификатор : 3
Формат : ASS
Идентификатор кодека : S_TEXT/ASS
Идентификатор кодека/Информация : Advanced Sub Station Alpha
Метод сжатия : Без потерь
Заголовок : Styled subs (ASS)
Язык : English
Default : Да
Forced : Нет

Меню
00:00:00.000 : en:Main
00:46:07.348 : en:Ending



Трекер:  [ 16-Апр-2018 11:01 ]

  

Скачать .torrent

Размер .torrent файла 20 KB


Размер: 984 MB
Хэш (hash) релиза: adf950a4e88d9e5d8eca7fe0e482470d6159e0e5
Подписка на обновления:

Торренты, похожие на Жар-птица: Глава о Ямато Hi no Tori: Yamato Hen скачать торрент

Форум Название Автор Размер S L Добавлен
Аниме | DVD ·· Феникс (Жар-птица): Глава о Ямато / Hi no Tori: Yamato Hen / The Phoenix: Chapter of Yamato [OVA] [1 из 1] [RUS, JAP, SUB] [1987 г., фэнтези, драма] [DVD5] Polarnik 45951426564.28 GB 0 0 1361796255

15:44

25-Фев-13

Еще никто не оставлял запись к записи скачать торрент Жар-птица: Глава о Ямато Hi no Tori: Yamato Hen . Будь первым!

!Обратная связь