Ver ahora | Watch Episode | Episode n° 8

Скачать через торрент Жар-птица: Глава о Фениксе Hi no Tori: Houou Hen бесплатно Аниме Все серии на русском torrent

Статистика раздачи
Размер:  1.21 GB   |    Зарегистрирован:  3 месяца 29 дней   |    .torrent скачан:  35 раз   |   
Раздают:  2  
   
загрузка...
 
Автор Сообщение

Galfimbul

avatar Galfimbul


Жар-птица: Глава о Фениксе / Hi no Tori: Houou Hen / Phoenix: Karma Chapter
Страна: Япония
Год выпуска: 1986
Жанр: фэнтези, драма
Тип: Movie
Продолжительность: 60 мин
Режиссёр: Ринтаро
Автор оригинала: Тэдзука Осаму
Снято по манге: Hi no Tori: Houou Hen
Студия: Madhouse Studios
Озвучка:
Двухголосная (муж./жен.) Azazel & Noir (SHIZA Project)
Субтитры:
русские (внешние) ASS полные
от Near_Dark
английские (встроенные) ASS полные
от A-FanRips
Описание: Судьба сводит ночью у костра резчика по дереву Аканемару, путешествующего в поисках легендарной Жар-птицы, статую которой он мечтает сделать, и Гао, жестокого убийцу и главаря разбойников. Гао грабит и ранит беззащитного Аканемару. И их дороги расходятся. Чтобы снова переплестись спустя некоторое время. Аканемару возводит статую Будды в столице, он уже известен по стране. Но подтвердить своё звание лучшего резчика ему предстоит в соревновании с бывшим бандитом, некогда поднявшим на него меч.
И вырезать из дерева они будут Птицу-Огонь.
Информационные ссылки: AniDB | MyAnimeList | World Art
Качество: DVDRip (R2J)
Релиз/Автор рипа: A-FanRips
Совместимость с бытовыми плеерами: Нет
Наличие линковки: Нет
Тип видео: без хардсаба
Формат: MKV
Видео: x264, 704x478 (анаморф @642x478), (4/3), ~2450кбит/с, 23,976fps, 8 bit
Аудио #1 (внешняя) русская - MP3, 2 ch, 192кбит/с, 48000Hz
Аудио #2 (в контейнере) японская - AC3, 2 ch, 192кбит/с, 48000Hz
* Чтобы смотреть с озвучкой, необходимо из папки Rus sound переписать файл в папку, где находятся видеофайл. Далее, следует запустить плеер и переключиться на mka-дорожку. Подробное описание здесь
* Чтобы смотреть с субтитрами, необходимо из папки Rus subs переписать файл в папку, где находятся видеофайл. В большинстве плееров, одноимённые субтитры подключатся автоматически.

#1 Жар-птица 2772: Космозона любви - п/ф, адаптация манги, 1980
#2 Жар-птица: Глава о Фениксе - п/ф, адаптация манги, 1986
#3 Жар-птица: Глава о Ямато - OVA (1 эп.), адаптация манги, 1987
#4 Жар-птица: Глава о космосе - OVA (1 эп.), адаптация манги, 1987
#5 Жар-птица [ТВ] - ТВ (13 эп.), адаптация манги, 2004
#6 Жар-птица: Глава о платье из перьев - к/ф, адаптация манги, 2004

...4181764 - лучше качество видео
<div class="sp-wrap">
<div class="sp-head folded">Сравнения</div>
<div class="sp-body">Тут

Там
</div>
</div>

Общее
Уникальный идентификатор : 206244827427954986926593555525440841274 (0x9B294F1431054A139227D0D3AA57263A)
Полное имя : C:\Торенты №1\Hi no Tori - Houou Hen [DVDRip 480p]\[A-FanRips]_Phoenix_-_Karma_Chapter_[H264_AC3].mkv
Формат : Matroska
Версия формата : Version 2
Размер файла : 1,13 Гбайт
Продолжительность : 1 ч. 0 м.
Общий поток : 2696 Кбит/сек
Дата кодирования : UTC 2009-11-05 18:32:52
Программа кодирования : mkvmerge v2.9.7 ('Tenderness') built on Jul 1 2009 18:43:35
Библиотека кодирования : libebml v0.7.7 + libmatroska v0.8.1
Attachments : GillSansMTPro-Medium.otf / SANSKRIT.TTF

Видео
Идентификатор : 1
Формат : AVC
Формат/Информация : Advanced Video Codec
Профиль формата : [email protected]
Параметр CABAC формата : Да
Параметр ReFrames формата : 13 кадров
Идентификатор кодека : V_MPEG4/ISO/AVC
Продолжительность : 1 ч. 0 м.
Битрейт : 2451 Кбит/сек
Ширина : 712 пикселей
Высота : 478 пикселей
Соотношение сторон : 4:3
Соотношение сторон в оригинале : 3:2
Режим частоты кадров : Постоянный
Частота кадров : 23,976 (24000/1001) кадра/сек
Цветовое пространство : YUV
Субдискретизация насыщенности : 4:2:0
Битовая глубина : 8 бит
Тип развёртки : Прогрессивная
Бит/(Пиксели*Кадры) : 0.300
Размер потока : 1,03 Гбайт (91%)
Библиотека кодирования : x264 core 68 r1181M 49bf767
Настройки программы : cabac=1 / ref=13 / deblock=1:-2:-2 / analyse=0x3:0x133 / me=umh / subme=9 / psy_rd=0.8:0.0 / mixed_ref=1 / me_range=16 / chroma_me=1 / trellis=2 / 8x8dct=1 / cqm=0 / deadzone=21,11 / chroma_qp_offset=-2 / threads=3 / nr=0 / decimate=0 / mbaff=0 / bframes=3 / b_pyramid=1 / b_adapt=2 / b_bias=0 / direct=1 / wpredb=1 / keyint=250 / keyint_min=25 / scenecut=40 / rc=crf / crf=18.0 / qcomp=0.60 / qpmin=10 / qpmax=23 / qpstep=4 / ip_ratio=1.40 / pb_ratio=1.30 / aq=1:0.70
Язык : English
Default : Да
Forced : Нет

Аудио
Идентификатор : 2
Формат : AC-3
Формат/Информация : Audio Coding 3
Расширение режима : CM (complete main)
Параметр Endianness формата : Big
Идентификатор кодека : A_AC3
Продолжительность : 1 ч. 0 м.
Вид битрейта : Постоянный
Битрейт : 192 Кбит/сек
Каналы : 2 канала
Расположение каналов : Front: L R
Частота : 48,0 КГц
Частота кадров : 31,250 кадров/сек (1536 spf)
Метод сжатия : С потерями
Размер потока : 82,5 Мбайт (7%)
Язык : Japanese
Default : Да
Forced : Нет

Текст
Идентификатор : 3
Формат : ASS
Идентификатор кодека : S_TEXT/ASS
Идентификатор кодека/Информация : Advanced Sub Station Alpha
Метод сжатия : Без потерь
Заголовок : Styled subs (ASS)
Язык : English
Default : Да
Forced : Нет

Меню
00:00:00.000 : en:Main Film
00:55:36.250 : en:Ending



Трекер:  [ 16-Апр-2018 10:30 ]

  

Скачать .torrent

Размер .torrent файла 13 KB


Размер: 1.21 GB
Хэш (hash) релиза: ccc6c99c079990127e1249bb4fc7709aaa45990b
Подписка на обновления:

Торренты, похожие на Жар-птица: Глава о Фениксе Hi no Tori: Houou Hen скачать торрент

Форум Название Автор Размер S L Добавлен
Аниме | DVD ·· Жар-птица: Глава о Фениксе (огненной птице) / Hi no Tori: Houou Hen / Phoenix: Karma Chapter [Movie] [RUS, JAP, SUB] [1986 г., историческое аниме] [DVD5] Polarnik 42801274883.99 GB 0 0 1361796239

15:43

25-Фев-13

Еще никто не оставлял запись к записи скачать торрент Жар-птица: Глава о Фениксе Hi no Tori: Houou Hen . Будь первым!

!Обратная связь