Computer Hoy – 17 junio 2018 | Alpanya Works [1.0] (eryngii toro salmon) [cen] [2017, Action, DOT/Pixel, Animation, Female Heroine, Loli, Small Tits/DFC, Silver Hair, Interspecies, Monsters, Tentacles, Zombies, Rape, Violation, Restraint, Bukkake, Creampie, Pregnant, Birth] [jap] | BlackAmbush.18.04.28.Desiree.XXX.720p.MP4-K

Скачать через торрент Криптон Krypton Фильм бесплатно в хорошем качестве torrent

Скачивайте на UnionPeer.org фильмы через торрент без регистрации. Новинки кино в хорошем качестве через торрент. На UnionPeer.org можно скачать через торрент фильмы 2014 и 2015 годов. Самые новые фильмы.

Скачать торрент Криптон Krypton бесплатно через .torrent фильм мультфильм сериал

Статистика раздачи
Размер:  6.67 GB   |    Зарегистрирован:  2 месяца 10 дней   |    .torrent скачан:  50 раз   |   
Раздают:  1  
   
загрузка...
 
Автор Сообщение

Galfimbul

avatar Galfimbul


Криптон / Krypton

Год выпуска: 2018
Страна: США
Жанр: Фантастика, боевик, драма, приключения
Продолжительность: ~ 00:45:00

Перевод: Профессиональный многоголосый закадровый (AMS)

Режиссёр: Киаран Доннелли, Кит Боак, Колм МакКарти

В ролях: Эллиот Кауэн, Шон Сайпос, Энн Огбомо, Аарон Пьер, Расмус Хардайкер, Блейк Ритсон, Йен МакЭлхинни, Камерон Каффе, Джорджина Кэмпбелл, Уоллис Дэй и другие

Описание:
В центре фантастического сериала — события, происходившие на родной планете мальчика с необычными способностями, который стал Суперменом. Действие разворачивается за несколько десятилетий до гибели планеты. Дед Супермена, всю жизнь веривший в равенство всех жителей планеты Криптон, решает вести непримиримую борьбу с беспорядками и очистить славное имя Элов…

/ Сэмпл

Качество: WEB-DL 720p
Контейнер: MKV

Видео: MPEG-4 AVC, 1280x720, 16:9, ~2349-4500 Кбит/с, 23.976 fps, ~0.106-0.200 bit/pixel
Аудио 1: Русский, AC3, 48.0 KHz, 6 channels, 640 Kbps
Аудио 2: Английский, AC3, 48.0 KHz, 6 channels, 640 Kbps
Субтитры: английские (Softsub SRT)

Реклама: Присутствует звуковая (два раза: в начале и конце по 12 сек)
General
Unique ID : 1693330123304184292756215854264621373 (0x1461F9EF1493FC17FF6A1FE3006193D)
Complete name : /Krypton.S01.720p.WEB-DL.AMS/Krypton.S01E01.720p.WEB-DL.AMS.mkv
Format : Matroska
Format version : Version 4 / Version 2
File size : 1.09 GiB
Duration : 43mn 6s
Overall bit rate mode : Variable
Overall bit rate : 3 631 Kbps
Encoded date : UTC 2018-01-01 23:59:59
Writing application : mkvmerge v8.2.0 ('World of Adventure') 64bit
Writing library : libebml v1.3.1 + libmatroska v1.4.2

Video
ID : 1
Format : AVC
Format/Info : Advanced Video Codec
Format profile : [email protected]
Format settings, CABAC : Yes
Format settings, ReFrames : 5 frames
Codec ID : V_MPEG4/ISO/AVC
Duration : 43mn 6s
Bit rate mode : Variable
Bit rate : 2 349 Kbps
Maximum bit rate : 4 500 Kbps
Width : 1 280 pixels
Height : 720 pixels
Display aspect ratio : 16:9
Frame rate mode : Constant
Frame rate : 23.976 (24000/1001) fps
Color space : YUV
Chroma subsampling : 4:2:0
Bit depth : 8 bits
Scan type : Progressive
Bits/(Pixel*Frame) : 0.106
Stream size : 724 MiB (65%)
Language : English
Default : Yes
Forced : No
Color range : Limited
Color primaries : BT.709
Transfer characteristics : BT.709
Matrix coefficients : BT.709

Audio #1
ID : 2
Format : AC-3
Format/Info : Audio Coding 3
Mode extension : CM (complete main)
Format settings, Endianness : Big
Codec ID : A_AC3
Duration : 43mn 5s
Bit rate mode : Constant
Bit rate : 640 Kbps
Channel(s) : 6 channels
Channel positions : Front: L C R, Side: L R, LFE
Sampling rate : 48.0 KHz
Frame rate : 31.250 fps (1536 spf)
Compression mode : Lossy
Stream size : 197 MiB (18%)
Language : Russian
Default : Yes
Forced : No

Audio #2
ID : 3
Format : E-AC-3
Format/Info : Audio Coding 3
Format settings, Endianness : Big
Codec ID : A_EAC3
Duration : 43mn 6s
Bit rate mode : Constant
Bit rate : 640 Kbps
Channel(s) : 6 channels
Channel positions : Front: L C R, Side: L R, LFE
Sampling rate : 48.0 KHz
Frame rate : 187.500 fps (256 spf)
Compression mode : Lossy
Stream size : 197 MiB (18%)
Language : English
Default : No
Forced : No

Text
ID : 4
Format : UTF-8
Codec ID : S_TEXT/UTF8
Codec ID/Info : UTF-8 Plain Text
Duration : 42mn 51s
Bit rate : 66 bps
Count of elements : 810
Stream size : 20.8 KiB (0%)
Title : English
Language : English
Default : No
Forced : No


Трекер:  [ 12-Май-2018 13:19 ]

  

Скачать .torrent

Размер .torrent файла 67 KB


Размер: 6.67 GB
Хэш (hash) релиза: fd101a6c82369232d4aa0c581e2ff7e2a312d28e
Подписка на обновления:

bot

Раздача обновлена!
Перекачайте торрент-файл.

Хотите добавить комментарий к записи скачать торрент Криптон Krypton

!Обратная связь