Tập Cuối Kurenai -Vệ Sĩ Học Đường
FilmLight Prelight On-Set v4.4m1.9539 macOS

Скачать через торрент Барри Barry Фильм бесплатно в хорошем качестве torrent

Скачивайте на UnionPeer.org фильмы через торрент без регистрации. Новинки кино в хорошем качестве через торрент. На UnionPeer.org можно скачать через торрент фильмы 2014 и 2015 годов. Самые новые фильмы.

Скачать торрент Барри Barry бесплатно через .torrent фильм мультфильм сериал

Статистика раздачи
Размер:  2.1 GB   |    Зарегистрирован:  7 дней   |    .torrent скачан:  33 раза   |   
Раздают:  1  
   
загрузка...
 
Автор Сообщение

Galfimbul

avatar Galfimbul


Барри / Barry

Оригинальное название: Barry
Русское название: Барри
Год выпуска: 2018
Страна: США
Жанр: Комедия
Продолжительность: ~30 мин.
Перевод: Профессиональный (многоголосый закадровый) Good People
Субтитры: Да (английские)
Режиссёр: Билл Хэйдер, Алек Берг, Мэгги Кэри
В ролях: Билл Хэйдер, Генри Уинклер, Стивен Рут, Сара Голдберг, Гленн Флешлер, Энтони Кэрриган, Даррел Бритт-Гибсон, Энди Кэри, Алехандро Ферт и др.
Описание: Барри — бывший морпех со Среднего Запада, а ныне никудышный киллер. Одинокий и неприкаянный, однажды он отправляется на заказ в Лос-Анджелес, где по воле случая оказывается на курсах актерского мастерства. Вдохновившись творческой атмосферой, Барри немедля решает стать актером и перезапустить свою жизнь.
Сэмпл
Качество: WEBRip 720p
Формат: MKV
Видео кодек: AVC
Аудио кодек: AC3, E-AC3
Видео: AVC, 1280x720 (16:9), 23.976 fps, ~2854kbps, 0.095 bit/pixel
Аудио 1: Dolby AC3 48000Hz 6ch 640 Kbps Русский
Аудио 2: Dolby E-AC3 48000Hz 6ch 640 Kbps Оригинал
Реклама: Присутствует звуковая (два раза в начале и конце по 12 сек.)
General
Unique ID                   : 251157207898983908236940347027424898389 (0xBCF31E6603FDA14E9246746A5DF16D55)
Complete name               : Barry.S01E01.Chapter.One.Make.Your.Mark.720p.AMZN.WEB-DL.DDP5.1.H.264-GoodPeople.mkv
Format                      : Matroska
Format version              : Version 2
File size                   : 713 MiB
Duration                    : 30mn 57s
Overall bit rate mode       : Variable
Overall bit rate            : 3 217 Kbps
Encoded date                : UTC 2018-04-10 21:19:12
Writing application         : mkvmerge v5.4.0 ('Piper') built on Mar 10 2012 13:34:39
Writing library             : libebml v1.2.3 + libmatroska v1.3.0
DURATION                    : 00:30:10.166000000
NUMBER_OF_FRAMES            : 524
NUMBER_OF_BYTES             : 18050
_STATISTICS_WRITING_APP     : mkvmerge v19.0.0 ('Brave Captain') 64-bit
_STATISTICS_WRITING_DATE_UT : 2018-03-26 11:41:14
_STATISTICS_TAGS            : BPS DURATION NUMBER_OF_FRAMES NUMBER_OF_BYTES

Video
ID                          : 1
Format                      : AVC
Format/Info                 : Advanced Video Codec
Format profile              : [email protected]
Format settings, CABAC      : Yes
Format settings, ReFrames   : 5 frames
Codec ID                    : V_MPEG4/ISO/AVC
Duration                    : 30mn 57s
Bit rate mode               : Variable
Bit rate                    : 1 873 Kbps
Maximum bit rate            : 4 500 Kbps
Width                       : 1 280 pixels
Height                      : 720 pixels
Display aspect ratio        : 16:9
Frame rate mode             : Constant
Frame rate                  : 23.976 fps
Color space                 : YUV
Chroma subsampling          : 4:2:0
Bit depth                   : 8 bits
Scan type                   : Progressive
Bits/(Pixel*Frame)          : 0.085
Stream size                 : 415 MiB (58%)
Default                     : Yes
Forced                      : No
Color range                 : Limited
Color primaries             : BT.709
Transfer characteristics    : BT.709
Matrix coefficients         : BT.709

Audio #1
ID                          : 2
Format                      : AC-3
Format/Info                 : Audio Coding 3
Mode extension              : CM (complete main)
Format settings, Endianness : Big
Codec ID                    : A_AC3
Duration                    : 30mn 57s
Bit rate mode               : Constant
Bit rate                    : 640 Kbps
Channel(s)                  : 6 channels
Channel positions           : Front: L C R, Side: L R, LFE
Sampling rate               : 48.0 KHz
Compression mode            : Lossy
Stream size                 : 142 MiB (20%)
Language                    : Russian
Default                     : Yes
Forced                      : No

Audio #2
ID                          : 3
Format                      : E-AC-3
Format/Info                 : Audio Coding 3
Format settings, Endianness : Big
Codec ID                    : A_EAC3
Duration                    : 30mn 57s
Bit rate mode               : Constant
Bit rate                    : 640 Kbps
Channel(s)                  : 6 channels
Channel positions           : Front: L C R, Side: L R, LFE
Sampling rate               : 48.0 KHz
Compression mode            : Lossy
Delay relative to video     : 7ms
Stream size                 : 142 MiB (20%)
Language                    : English
Default                     : No
Forced                      : No

Text
ID                          : 4
Format                      : UTF-8
Codec ID                    : S_TEXT/UTF8
Codec ID/Info               : UTF-8 Plain Text
Language                    : English
Default                     : No
Forced                      : No


Трекер:  [ 16-Апр-2018 06:18 ]

  

Скачать .torrent

Размер .torrent файла 11 KB


Размер: 2.1 GB
Хэш (hash) релиза: f9d9f4f285a9f15a3ff503a54b6038e8fe4f366f
Подписка на обновления:

Торренты, похожие на Барри Barry скачать торрент

Форум Название Автор Размер S L Добавлен
Зарубежные сериалы ·· Барри / Barry / Сезон: 1 / Серии: 1-3 из 8 (Билл Хэйдер, Алек Берг, Мэгги Кэри) [2018, США, Комедия, WEB-DLRip] MVO (Good People) + Original Galfimbul 11260436481.05 GB 0 0 1523463487

19:18

11-Апр-18

Еще никто не оставлял запись к записи скачать торрент Барри Barry . Будь первым!

!Обратная связь