18.07: Quiver [FINAL] | Need for Speed Underground 2 V1 2 P2P | The Walking Dead Temporada 8 BluRay 1080p

Скачать через торрент Ну, здравствуй, Оксана Соколова! Фильм бесплатно в хорошем качестве torrent

Скачивайте на UnionPeer.org фильмы через торрент без регистрации. Новинки кино в хорошем качестве через торрент. На UnionPeer.org можно скачать через торрент фильмы 2014 и 2015 годов. Самые новые фильмы.

Скачать торрент Ну, здравствуй, Оксана Соколова! бесплатно через .torrent фильм мультфильм сериал

Статистика раздачи
Размер:  1.46 GB   |    Зарегистрирован:  3 месяца 29 дней   |    .torrent скачан:  187 раз   |   
Раздают:  1  
   
загрузка...
 
Автор Сообщение

Galfimbul

avatar Galfimbul


Ну, здравствуй, Оксана Соколова!

Страна: Россия
Жанр: Комедия
Год выпуска: 2018
Продолжительность: 01:39:54
Субтитры: нет
Режиссер: Кирилл Васильев
В ролях: Виктор Добронравов, Валентина Мазунина, Сергей Бурунов, Борис Дергачев, Алексей Базанов, Александр Стефанцов, Николай Шрайбер, Алексей Медведев, Игорь Гаспарян, Сергей Лавыгин
Описание: Несостоявшемуся актеру Илье наконец-то повезло — с завтрашнего дня его голос будет звучать в эфире «Мужского радио». Как же не отметить такое событие! Но утром новоиспеченный ведущий не может произнести ни слова — голос после бурной вечеринки пропал совсем. Полчаса до эфира, прайм-тайм, подписанный контракт — Илья в панике… Единственный выход — укол в голосовые связки. Только это, по заверению доктора, может спасти ситуацию. И вот ведущий у микрофона. Все готово к эфиру. Обратный отсчет. Илья приветствует радиослушателей… женским голосом! Став заложником нелепой ситуации, герой идёт на всё, чтобы вернуть голос и не упустить свой шанс.
Качество видео: WEB-DLRip
Формат видео: AVI

Видео: 720x304 (2.37:1), 23.976 fps, XviD build 73 ~1699 kbps avg, 0.32 bit/pixel
Аудио: 48 kHz, AC3 Dolby Digital, 3/2 (L,C,R,l,r) + LFE ch, ~384 kbps
Сэмпл
Format                      : AVI
Format/Info                 : Audio Video Interleave
File size                   : 1.46 GiB
Duration                    : 1 h 39 min
Overall bit rate            : 2 093 kb/s
Writing application         : VirtualDubMod 1.5.10.2 (build 2540/release)
Writing library             : VirtualDubMod build 2540/release

Video
ID                          : 0
Format                      : MPEG-4 Visual
Format profile              : Advanced [email protected]
Format settings             : BVOP1 / Custom Matrix
Format settings, BVOP       : 1
Format settings, QPel       : No
Format settings, GMC        : No warppoints
Format settings, Matrix     : Custom
Codec ID                    : XVID
Codec ID/Hint               : XviD
Duration                    : 1 h 39 min
Bit rate                    : 1 700 kb/s
Width                       : 720 pixels
Height                      : 304 pixels
Display aspect ratio        : 2.35:1
Frame rate                  : 23.976 (24000/1001) FPS
Color space                 : YUV
Chroma subsampling          : 4:2:0
Bit depth                   : 8 bits
Scan type                   : Progressive
Compression mode            : Lossy
Bits/(Pixel*Frame)          : 0.324
Stream size                 : 1.19 GiB (81%)
Writing library             : XviD 73

Audio
ID                          : 1
Format                      : AC-3
Format/Info                 : Audio Coding 3
Codec ID                    : 2000
Duration                    : 1 h 39 min
Bit rate mode               : Constant
Bit rate                    : 384 kb/s
Channel(s)                  : 6 channels
Channel positions           : Front: L C R, Side: L R, LFE
Sampling rate               : 48.0 kHz
Frame rate                  : 31.250 FPS (1536 SPF)
Bit depth                   : 16 bits
Compression mode            : Lossy
Stream size                 : 274 MiB (18%)
Alignment                   : Split accross interleaves
Interleave, duration        : 42  ms (1.00 video frame)
Interleave, preload duratio : 500  ms
Service kind                : Complete Main


Трекер:  [ 16-Апр-2018 05:54 ]

  

Скачать .torrent

Размер .torrent файла 15 KB


Размер: 1.46 GB
Хэш (hash) релиза: e61c1eac23643b6feff264b34b9bdd1c5bd11adf
Подписка на обновления:

Торренты, похожие на Ну, здравствуй, Оксана Соколова! скачать торрент

Форум Название Автор Размер S L Добавлен
Российские фильмы до 2016 ·· Ну, здравствуй, Оксана Соколова! (Кирилл Васильев) [2018, комедия, WEB-DLRip] Galfimbul 779964416744 MB 0 0 1524299056

11:24

21-Апр-18

Российские фильмы 2016-2018 (Новинки русского кино) ·· Ну, здравствуй, Оксана Соколова! (Кирилл Васильев) [2018 г., Комедия, WEB-DL 720p] iTunes Galfimbul 32932346463.07 GB 0 0 1523827214

00:20

16-Апр-18

Российские фильмы 2016-2018 (Новинки русского кино) ·· Ну, здравствуй, Оксана Соколова! (Кирилл Васильев) [2018 г., Комедия, WEB-DLRip] iTunes Galfimbul 15682887681.46 GB 1 4 1523823618

23:20

15-Апр-18

Российские фильмы 2016-2018 (Новинки русского кино) ·· Ну, здравствуй, Оксана Соколова! (Кирилл Васильев) [2018 г., Комедия, WEB-DL 1080p] iTunes Galfimbul 36801412993.43 GB 1 4 1523821310

22:41

15-Апр-18

Российские фильмы 2016-2018 (Новинки русского кино) ·· Ну, здравствуй, Оксана Соколова! (Кирилл Васильев) [2018 г., Комедия, TS 720p] Galfimbul 24249385812.26 GB 0 0 1520762884

13:08

11-Мар-18

Российские фильмы 2016-2018 (Новинки русского кино) ·· Ну, здравствуй, Оксана Соколова! (Кирилл Васильев) [2018 г., Комедия, TS] Galfimbul 14676131841.37 GB 0 0 1520762882

13:08

11-Мар-18

Еще никто не оставлял запись к записи скачать торрент Ну, здравствуй, Оксана Соколова! . Будь первым!

!Обратная связь