OpenLoad | Библиотеки сэмплов | Eps16 Suits - Season 7 (2017)

Скачать через торрент Что? Где? Когда? Весенняя серия. Финал Фильм бесплатно в хорошем качестве torrent

Скачивайте на UnionPeer.org фильмы через торрент без регистрации. Новинки кино в хорошем качестве через торрент. На UnionPeer.org можно скачать через торрент фильмы 2014 и 2015 годов. Самые новые фильмы.

Скачать торрент Что? Где? Когда? Весенняя серия. Финал бесплатно через .torrent фильм мультфильм сериал

Статистика раздачи
Размер:  5.33 GB   |    Зарегистрирован:  3 месяца 5 дней   |    .torrent скачан:  45 раз   |   
Раздают:  1  
   
загрузка...
 
Автор Сообщение

Galfimbul

avatar Galfimbul


Что? Где? Когда? Весенняя серия. Финал

Дата/Год выпуска: 15.04.2018
Страна: Россия
Жанр: Телеигра
Продолжительность: 01:10:06
Перевод: Не требуется
Телеканал: Первый HD
Описание: Финальная игра Весенней Серии 2018г Элитарного клуба ЧГК

Доп. информация: команда Виктора Сиднева

1. Александр Друзь
2. Максим Поташев
3. Борис Левин
4. Леонид Тимофеев
5. Михаил Дюба
6. Виктор Сиднев

качество: HDTV 1080i
формат: TS
Видео: AVC at 9756 Кбит/сек Aspect : 1920 x 1080 (1.778) at 25.000 fps
Аудио: AC-3 at 384 Кбит/сек Infos : 6 каналов, 48,0 КГц
Аудио 2: MPEG Audio at 192 Кбит/сек Infos : 2 канала, 48,0 КГц
ОбщееИдентификатор : 1 (0x1)Полное имя : E:\MPEG\ЧГК.15.04.2018.HDTV.1080i.Doc66.tsФормат : MPEG-TSРазмер файла : 5,33 ГбайтПродолжительность : 1 ч. 10 м.Режим общего битрейта : ПеременныйОбщий поток : 10,9 Мбит/сек

ВидеоИдентификатор : 205 (0xCD)Идентификатор меню : 20105 (0x4E89)Формат : AVCФормат/Информация : Advanced Video CodecПрофиль формата : [email protected]Параметр CABAC формата : ДаПараметр ReFrames формата : 4 кадраПараметр GOP формата : M=4, N=28Идентификатор кодека : 27Продолжительность : 1 ч. 10 м.Битрейт : 9756 Кбит/секШирина : 1920 пикселейВысота : 1080 пикселейСоотношение сторон : 16:9Частота кадров : 25,000 кадров/секСтандарт вещания : ComponentЦветовое пространство : YUVСубдискретизация насыщенности : 4:2:0Битовая глубина : 8 битТип развёртки : ЧересстрочнаяПорядок развёртки : Верхнее поле первоеБит/(Пиксели*Кадры) : 0.188Размер потока : 4,78 Гбайт (90%)Цветовой диапазон : LimitedОсновные цвета : BT.709Характеристики трансфера : BT.709Коэффициенты матрицы : BT.709

Аудио #1Идентификатор : 305 (0x131)Идентификатор меню : 20105 (0x4E89)Формат : AC-3Формат/Информация : Audio Coding 3Расширение режима : CM (complete main)Параметр Endianness формата : BigИдентификатор кодека : 6Продолжительность : 1 ч. 10 м.Вид битрейта : ПостоянныйБитрейт : 384 Кбит/секКаналы : 6 каналовРасположение каналов : Front: L C R, Side: L R, LFEЧастота : 48,0 КГцМетод сжатия : С потерямиЗадержка видео : -120 мс.Размер потока : 193 Мбайт (4%)Язык : Russian

Аудио #2Идентификатор : 306 (0x132)Идентификатор меню : 20105 (0x4E89)Формат : MPEG AudioВерсия формата : Version 1Профиль формата : Layer 2Идентификатор кодека : 3Продолжительность : 1 ч. 10 м.Вид битрейта : ПостоянныйБитрейт : 192 Кбит/секКаналы : 2 каналаЧастота : 48,0 КГцМетод сжатия : С потерямиЗадержка видео : -120 мс.Размер потока : 96,3 Мбайт (2%)Язык : Russian

Текст #1Идентификатор : 307 (0x133)-100Идентификатор меню : 20105 (0x4E89)Формат : TeletextЯзык : Russian

Текст #2Идентификатор : 307 (0x133)-888Идентификатор меню : 20105 (0x4E89)Формат : Teletext SubtitleЯзык : RussianЯзык, дополнительно : For hearing impaired people

МенюИдентификатор : 105 (0x69)Идентификатор меню : 20105 (0x4E89)Продолжительность : 1 ч. 10 м.Список : 205 (0xCD) (AVC) / 305 (0x131) (AC-3, Russian) / 306 (0x132) (MPEG Audio, Russian) / 307 (0x133) ()Язык : / Russian / Russian


Трекер:  [ 16-Апр-2018 00:42 ]

  

Скачать .torrent

Размер .torrent файла 27 KB


Размер: 5.33 GB
Хэш (hash) релиза: 5fde6c7d66aa232a197b258fb23c2b487ee13901
Подписка на обновления:

Еще никто не оставлял запись к записи скачать торрент Что? Где? Когда? Весенняя серия. Финал . Будь первым!

!Обратная связь