American Crime Story Saison 1
6.8 Caged Women (1980)

Скачать через торрент Что? Где? Когда? Весенняя серия. Четвёртая Игра Фильм бесплатно в хорошем качестве torrent

Скачивайте на UnionPeer.org фильмы через торрент без регистрации. Новинки кино в хорошем качестве через торрент. На UnionPeer.org можно скачать через торрент фильмы 2014 и 2015 годов. Самые новые фильмы.

Скачать торрент Что? Где? Когда? Весенняя серия. Четвёртая Игра бесплатно через .torrent фильм мультфильм сериал

Статистика раздачи
Размер:  3.08 GB   |    Зарегистрирован:  8 дней   |    .torrent скачан:  36 раз   |   
Раздают:  1  
   
загрузка...
 
Автор Сообщение

Galfimbul

avatar Galfimbul


Что? Где? Когда? Весенняя серия. Четвёртая Игра

Дата/Год выпуска: 08.04.2018
Страна: Россия
Жанр: Телеигра
Продолжительность: 00:52:31
Перевод: Не требуется
Телеканал: Первый HD
Описание: Четвёртая Игра Весенней Серии 2018г Элитарного клуба ЧГК

Доп. информация: команда Бориса Белозёрова

1. Ольга Быкова
2. Дарья Любинская
3. Ким Галачян
4. Антон Иоков
5. Никита Старун
6. Борис Белозёров

Автор записи:kuzmichm2196 (Слова благодарности!!!)

качество: HDTV 1080i
формат: TS
Видео: AVC at 7796 Кбит/сек Aspect : 1920 x 1080 (1.778) at 25.000 fps
Аудио: MPEG Audio at 192 Кбит/сек Infos : 2 канала, 48,0 КГц
ОбщееИдентификатор : 1 (0x1)Полное имя : E:\MPEG\ЧГК.08.04.2018.HDTV.1080i.tsФормат : MPEG-TSРазмер файла : 3,08 ГбайтПродолжительность : 52 м.Режим общего битрейта : ПеременныйОбщий поток : 8405 Кбит/сек

ВидеоИдентификатор : 1186 (0x4A2)Идентификатор меню : 1139 (0x473)Формат : AVCФормат/Информация : Advanced Video CodecПрофиль формата : [email protected]Параметр CABAC формата : ДаПараметр ReFrames формата : 4 кадраПараметр GOP формата : M=4, N=32Идентификатор кодека : 27Продолжительность : 52 м.Битрейт : 7796 Кбит/секШирина : 1920 пикселейВысота : 1080 пикселейСоотношение сторон : 16:9Частота кадров : 25,000 кадров/секСтандарт вещания : ComponentЦветовое пространство : YUVСубдискретизация насыщенности : 4:2:0Битовая глубина : 8 битТип развёртки : ЧересстрочнаяПорядок развёртки : Верхнее поле первоеБит/(Пиксели*Кадры) : 0.150Размер потока : 2,86 Гбайт (93%)Цветовой диапазон : LimitedОсновные цвета : BT.709Характеристики трансфера : BT.709Коэффициенты матрицы : BT.709

АудиоИдентификатор : 1187 (0x4A3)Идентификатор меню : 1139 (0x473)Формат : MPEG AudioВерсия формата : Version 1Профиль формата : Layer 2Идентификатор кодека : 3Продолжительность : 52 м.Вид битрейта : ПостоянныйБитрейт : 192 Кбит/секКаналы : 2 каналаЧастота : 48,0 КГцМетод сжатия : С потерямиЗадержка видео : -80 мс.Размер потока : 72,1 Мбайт (2%)Язык : English

ТекстИдентификатор : 1188 (0x4A4)-888Идентификатор меню : 1139 (0x473)Формат : Teletext SubtitleЯзык : RussianЯзык, дополнительно : For hearing impaired people

МенюИдентификатор : 1184 (0x4A0)Идентификатор меню : 1139 (0x473)Продолжительность : 52 м.Список : 1186 (0x4A2) (AVC) / 1187 (0x4A3) (MPEG Audio, English) / 1188 (0x4A4) ()Язык : / English


Трекер:  [ 16-Апр-2018 00:42 ]

  

Скачать .torrent

Размер .torrent файла 16 KB


Размер: 3.08 GB
Хэш (hash) релиза: 4d79abb79bac62af561e4a811fe9a4e3485cfc2a
Подписка на обновления:

Торренты, похожие на Что? Где? Когда? Весенняя серия. Четвёртая Игра скачать торрент

Форум Название Автор Размер S L Добавлен
Развлекательные телепередачи и шоу ·· Что? Где? Когда? Весенняя серия. Игра Четвёртая [18.04.2015, Телеигра, DVB] Galfimbul 11846471681.1 GB 0 0 1429392909

00:35

19-Апр-15

Еще никто не оставлял запись к записи скачать торрент Что? Где? Когда? Весенняя серия. Четвёртая Игра . Будь первым!

!Обратная связь