Microsoft | Supermaderos 2 | PES 2018 : comment patcher votre jeu pour avoir les vrais noms et logos (mod PS4)

Скачать через торрент Ну, здравствуй, Оксана Соколова! Фильм бесплатно в хорошем качестве torrent

Скачивайте на UnionPeer.org фильмы через торрент без регистрации. Новинки кино в хорошем качестве через торрент. На UnionPeer.org можно скачать через торрент фильмы 2014 и 2015 годов. Самые новые фильмы.

Скачать торрент Ну, здравствуй, Оксана Соколова! бесплатно через .torrent фильм мультфильм сериал

Статистика раздачи
Размер:  3.07 GB   |    Зарегистрирован:  3 месяца 3 дня   |    .torrent скачан:  234 раза   |   
Раздают:  1  
   
загрузка...
 
Автор Сообщение

Galfimbul

avatar Galfimbul


Ну, здравствуй, Оксана Соколова!

Год выхода: 2018
Жанр: Комедия
Режиссер: Кирилл Васильев
В ролях: Виктор Добронравов, Валентина Мазунина, Сергей Бурунов, Борис Дергачев, Алексей Базанов, Александр Стефанцов, Николай Шрайбер, Алексей Медведев, Игорь Гаспарян, Сергей Лавыгин

О фильме:
Несостоявшемуся актеру Илье наконец-то повезло — с завтрашнего дня его голос будет звучать в эфире «Мужского радио». Как же не отметить такое событие! Но утром новоиспеченный ведущий не может произнести ни слова — голос после бурной вечеринки пропал совсем. Полчаса до эфира, прайм-тайм, подписанный контракт — Илья в панике… Единственный выход — укол в голосовые связки. Только это, по заверению доктора, может спасти ситуацию. И вот ведущий у микрофона. Все готово к эфиру. Обратный отсчет. Илья приветствует радиослушателей… женским голосом! Став заложником нелепой ситуации, герой идёт на всё, чтобы вернуть голос и не упустить свой шанс.


Страна: Россия
Студия: Профит
Продолжительность: 01:39:54
Перевод:
• Не требуется | iTunes

Файл
Качество: WEB-DL 720p
Формат: MKV
Кодек: MPEG-4 AVC
Видео: 1280x532 (2,40:1), 23,976 fps, MPEG-4 AVC ~ 4009 kbps avg, 0.246 bit/pixel
Аудио: AC3, 48 kHz, 6 ch, ~384.00 kbps avg | русский | iTunes
Субтитры: Отсутствуют
Общее
Уникальный идентификатор : 200575224850493246469909068934880720095 (0x96E562170C2843298C53B96E30DC74DF)
Полное имя : HI_OKSANA_SOKOLOVA_WEB_DL_720p.mkv
Формат : Matroska
Версия формата : Version 2
Размер файла : 3,07 Гбайт
Продолжительность : 1 ч. 39 м.
Общий поток : 4395 Кбит/сек
Дата кодирования : UTC 2018-04-15 18:07:01
Программа кодирования : mkvmerge v8.3.0 ('Over the Horizon') 64bit
Библиотека кодирования : libebml v1.3.1 + libmatroska v1.4.2

Видео
Идентификатор : 1
Формат : AVC
Формат/Информация : Advanced Video Codec
Профиль формата : [email protected]
Настройки формата : 2 Ref Frames
Параметр CABAC формата : Нет
Параметр ReFrames формата : 2 кадра
Идентификатор кодека : V_MPEG4/ISO/AVC
Продолжительность : 1 ч. 39 м.
Битрейт : 4009 Кбит/сек
Ширина : 1280 пикселей
Высота : 532 пикселя
Соотношение сторон : 2,40:1
Режим частоты кадров : Постоянный
Частота кадров : 23,976 (24000/1001) кадра/сек
Цветовое пространство : YUV
Субдискретизация насыщенности : 4:2:0
Битовая глубина : 8 бит
Тип развёртки : Прогрессивная
Бит/(Пиксели*Кадры) : 0.246
Размер потока : 2,80 Гбайт (91%)
Язык : English
Default : Да
Forced : Нет
Цветовой диапазон : Limited
Основные цвета : BT.709
Характеристики трансфера : BT.709
Коэффициенты матрицы : BT.709

Аудио
Идентификатор : 2
Формат : AC-3
Формат/Информация : Audio Coding 3
Идентификатор кодека : A_AC3
Продолжительность : 1 ч. 39 м.
Вид битрейта : Постоянный
Битрейт : 384 Кбит/сек
Каналы : 6 каналов
Расположение каналов : Front: L C R, Side: L R, LFE
Частота : 48,0 КГц
Частота кадров : 31,250 кадров/сек (1536 SPF)
Битовая глубина : 16 бит
Метод сжатия : С потерями
Размер потока : 274 Мбайт (9%)
Язык : Russian
Default : Да
Forced : Нет

Меню
00:00:00.000 : en:1
00:01:20.000 : en:2
00:10:06.000 : en:3
00:19:48.000 : en:4
00:35:10.000 : en:5
00:45:05.000 : en:6
00:55:19.000 : en:7
01:07:24.000 : en:8
01:16:28.000 : en:9
01:25:16.000 : en:10
01:34:52.000 : en:11
Источник http://blator.org

Трекер:  [ 16-Апр-2018 00:20 ]

  

Скачать .torrent

Размер .torrent файла 15 KB


Размер: 3.07 GB
Хэш (hash) релиза: 86117e008ce20fa3a123a1eb538bdd77183dab2e
Подписка на обновления:

Торренты, похожие на Ну, здравствуй, Оксана Соколова! скачать торрент

Форум Название Автор Размер S L Добавлен
Российские фильмы до 2016 ·· Ну, здравствуй, Оксана Соколова! (Кирилл Васильев) [2018, комедия, WEB-DLRip] Galfimbul 779964416744 MB 0 0 1524299056

11:24

21-Апр-18

Российские фильмы до 2016 ·· Ну, здравствуй, Оксана Соколова! (Кирилл Васильев) [2018, комедия, WEB-DLRip] Galfimbul 15682887681.46 GB 2 0 1523847250

05:54

16-Апр-18

Российские фильмы 2016-2018 (Новинки русского кино) ·· Ну, здравствуй, Оксана Соколова! (Кирилл Васильев) [2018 г., Комедия, WEB-DLRip] iTunes Galfimbul 15682887681.46 GB 1 9 1523823618

23:20

15-Апр-18

Российские фильмы 2016-2018 (Новинки русского кино) ·· Ну, здравствуй, Оксана Соколова! (Кирилл Васильев) [2018 г., Комедия, WEB-DL 1080p] iTunes Galfimbul 36801412993.43 GB 1 6 1523821310

22:41

15-Апр-18

Российские фильмы 2016-2018 (Новинки русского кино) ·· Ну, здравствуй, Оксана Соколова! (Кирилл Васильев) [2018 г., Комедия, TS 720p] Galfimbul 24249385812.26 GB 0 0 1520762884

13:08

11-Мар-18

Российские фильмы 2016-2018 (Новинки русского кино) ·· Ну, здравствуй, Оксана Соколова! (Кирилл Васильев) [2018 г., Комедия, TS] Galfimbul 14676131841.37 GB 0 0 1520762882

13:08

11-Мар-18

Еще никто не оставлял запись к записи скачать торрент Ну, здравствуй, Оксана Соколова! . Будь первым!

!Обратная связь