Game of Thrones S06E03 1080p WEB-DL x265 HEVC [upload-hero]
The Girl With season 08 episode 20

Скачать через торрент Ну, здравствуй, Оксана Соколова! Фильм бесплатно в хорошем качестве torrent

Скачивайте на UnionPeer.org фильмы через торрент без регистрации. Новинки кино в хорошем качестве через торрент. На UnionPeer.org можно скачать через торрент фильмы 2014 и 2015 годов. Самые новые фильмы.

Скачать торрент Ну, здравствуй, Оксана Соколова! бесплатно через .torrent фильм мультфильм сериал

Статистика раздачи
Размер:  3.43 GB   |    Зарегистрирован:  4 дня   |    .torrent скачан:  204 раза   |   
Раздают:  1   Качают:  14  
   
загрузка...
 
Автор Сообщение

Galfimbul

avatar Galfimbul


Ну, здравствуй, Оксана Соколова!

Год выхода: 2018
Жанр: Комедия
Режиссер: Кирилл Васильев
В ролях: Виктор Добронравов, Валентина Мазунина, Сергей Бурунов, Борис Дергачев, Алексей Базанов, Александр Стефанцов, Николай Шрайбер, Алексей Медведев, Игорь Гаспарян, Сергей Лавыгин

О фильме:
Несостоявшемуся актеру Илье наконец-то повезло — с завтрашнего дня его голос будет звучать в эфире «Мужского радио». Как же не отметить такое событие! Но утром новоиспеченный ведущий не может произнести ни слова — голос после бурной вечеринки пропал совсем. Полчаса до эфира, прайм-тайм, подписанный контракт — Илья в панике… Единственный выход — укол в голосовые связки. Только это, по заверению доктора, может спасти ситуацию. И вот ведущий у микрофона. Все готово к эфиру. Обратный отсчет. Илья приветствует радиослушателей… женским голосом! Став заложником нелепой ситуации, герой идёт на всё, чтобы вернуть голос и не упустить свой шанс.


Страна: Россия
Студия: Профит
Продолжительность: 01:39:54
Перевод:
• Не требуется | iTunes

Файл
Качество: WEB-DL 1080p
Формат: MKV
Кодек: MPEG-4 AVC
Видео: 1912x796 (2,40:1), 23,976 fps, MPEG-4 AVC ~ 4526 kbps avg, 0.124 bit/pixel
Аудио: AC3, 48 kHz, 6 ch, ~384.00 kbps avg | русский | iTunes
Субтитры: Отсутствуют
Общее
Уникальный идентификатор : 249789261901388561994054901135333248262 (0xBBEBA97420D73FC386320B314835CD06)
Полное имя : HI_OKSANA_SOKOLOVA_WEB_DL_1080p.mkv
Формат : Matroska
Версия формата : Version 2
Размер файла : 3,43 Гбайт
Продолжительность : 1 ч. 39 м.
Общий поток : 4912 Кбит/сек
Дата кодирования : UTC 2018-04-15 18:06:27
Программа кодирования : mkvmerge v8.3.0 ('Over the Horizon') 64bit
Библиотека кодирования : libebml v1.3.1 + libmatroska v1.4.2

Видео
Идентификатор : 1
Формат : AVC
Формат/Информация : Advanced Video Codec
Профиль формата : [email protected]
Настройки формата : CABAC / 5 Ref Frames
Параметр CABAC формата : Да
Параметр ReFrames формата : 5 кадров
Идентификатор кодека : V_MPEG4/ISO/AVC
Продолжительность : 1 ч. 39 м.
Битрейт : 4526 Кбит/сек
Ширина : 1912 пикселей
Высота : 796 пикселей
Соотношение сторон : 2,40:1
Режим частоты кадров : Постоянный
Частота кадров : 23,976 (24000/1001) кадра/сек
Цветовое пространство : YUV
Субдискретизация насыщенности : 4:2:0
Битовая глубина : 8 бит
Тип развёртки : Прогрессивная
Бит/(Пиксели*Кадры) : 0.124
Размер потока : 3,16 Гбайт (92%)
Язык : English
Default : Да
Forced : Нет
Цветовой диапазон : Limited
Основные цвета : BT.709
Характеристики трансфера : BT.709
Коэффициенты матрицы : BT.709

Аудио
Идентификатор : 2
Формат : AC-3
Формат/Информация : Audio Coding 3
Идентификатор кодека : A_AC3
Продолжительность : 1 ч. 39 м.
Вид битрейта : Постоянный
Битрейт : 384 Кбит/сек
Каналы : 6 каналов
Расположение каналов : Front: L C R, Side: L R, LFE
Частота : 48,0 КГц
Частота кадров : 31,250 кадров/сек (1536 SPF)
Битовая глубина : 16 бит
Метод сжатия : С потерями
Размер потока : 274 Мбайт (8%)
Язык : Russian
Default : Да
Forced : Нет

Меню
00:00:00.000 : en:1
00:01:20.000 : en:2
00:10:06.000 : en:3
00:19:48.000 : en:4
00:35:10.000 : en:5
00:45:05.000 : en:6
00:55:19.000 : en:7
01:07:24.000 : en:8
01:16:28.000 : en:9
01:25:16.000 : en:10
01:34:52.000 : en:11
Источник http://yarutor.org

Трекер:  [ 15-Апр-2018 22:40 ]

  

Скачать .torrent

Размер .torrent файла 17 KB


Размер: 3.43 GB
Хэш (hash) релиза: 8a0fd04d725c15b286f25b66ee0d028bdf203618
Подписка на обновления:

Торренты, похожие на Ну, здравствуй, Оксана Соколова! скачать торрент

Форум Название Автор Размер S L Добавлен
Российские фильмы до 2016 ·· Ну, здравствуй, Оксана Соколова! (Кирилл Васильев) [2018, комедия, WEB-DLRip] Galfimbul 15682887681.46 GB 0 0 1523847250

05:54

16-Апр-18

Российские фильмы 2016-2018 (Новинки русского кино) ·· Ну, здравствуй, Оксана Соколова! (Кирилл Васильев) [2018 г., Комедия, WEB-DL 720p] iTunes Galfimbul 32932346463.07 GB 0 0 1523827214

00:20

16-Апр-18

Российские фильмы 2016-2018 (Новинки русского кино) ·· Ну, здравствуй, Оксана Соколова! (Кирилл Васильев) [2018 г., Комедия, WEB-DLRip] iTunes Galfimbul 15682887681.46 GB 1 8 1523823618

23:20

15-Апр-18

Российские фильмы 2016-2018 (Новинки русского кино) ·· Ну, здравствуй, Оксана Соколова! (Кирилл Васильев) [2018 г., Комедия, TS 720p] Galfimbul 24249385812.26 GB 0 0 1520762884

13:08

11-Мар-18

Российские фильмы 2016-2018 (Новинки русского кино) ·· Ну, здравствуй, Оксана Соколова! (Кирилл Васильев) [2018 г., Комедия, TS] Galfimbul 14676131841.37 GB 0 0 1520762882

13:08

11-Мар-18

Еще никто не оставлял запись к записи скачать торрент Ну, здравствуй, Оксана Соколова! . Будь первым!

!Обратная связь