Przystań / Haven (2010)
Maze Runner: The Death Cure (2018) [BluRay] [720p] [YTS] [YIFY]

Скачать через торрент Механизм O Meсanismo Фильм бесплатно в хорошем качестве torrent

Скачивайте на UnionPeer.org фильмы через торрент без регистрации. Новинки кино в хорошем качестве через торрент. На UnionPeer.org можно скачать через торрент фильмы 2014 и 2015 годов. Самые новые фильмы.

Скачать торрент Механизм O Meсanismo бесплатно через .torrent фильм мультфильм сериал

Статистика раздачи
Размер:  4.93 GB   |    Зарегистрирован:  8 дней   |    .torrent скачан:  29 раз   |   
Раздают:  1  
   
загрузка...
 
Автор Сообщение

Galfimbul

avatar Galfimbul


Механизм / O Meсanismo / The Mechanism

Год выпуска: 2018
Страна: США
Жанр: Триллер, драма, криминал
Продолжительность: ~ 00:42:00

Перевод: Профессиональный (многоголосый закадровый) (AMS)

Режиссёр: Фелипе Прадо, Жозе Падилья, Маркус Прадо

В ролях: Селтон Мелу, Каролине Абрас, Алессандра Колаццанти, Энрике Диас, Джонатан Хаагенсен, Леонардо Медейрос, Отто Жуниор, Сюзана Рибейро, Антонио Сабойа, Ли Тейлор и другие

Описание: Группа следователей пытается раскрыть внутренние процессы крупнейшей коррупционной схемы в истории. Однако это расследование будет иметь последствия для всех, кто к нему причастен, — в том числе для тех, кто находится на стороне закона.

Cсылка на предыдущие и альтернативные раздачи / Сэмпл

Качество: WEB-DL 720p
Контейнер: MKV

Видео: AVC, 1280x720 (16:9), 23.976 fps, ~2740 kbps, 0.124 bit/pixel
Аудио 1: Русский, AC3, 48 KHz, 6 channels, 384 kbps
Аудио 2: Португальский, AC3, 48 KHz, 6 channels, 384 kbps
Субтитры: Английские [Softsub SRT]

Реклама: Присутствует звуковая (два раза: в начале и конце по 12 сек)
General
Unique ID : 251643638743606608756519685084037095765 (0xBD50CD4A703152785BB16331A269A155)
Complete name : /The.Mechanism.S01.720p.WEB-DL.AMS/The.Mechanism.S01E01.720p.WEB-DL.AMS.mkv
Format : Matroska
Format version : Version 4 / Version 2
File size : 1.09 GiB
Duration : 44mn 31s
Overall bit rate mode : Variable
Overall bit rate : 3 490 Kbps
Encoded date : UTC 2018-01-01 23:59:59
Writing application : mkvmerge v8.2.0 ('World of Adventure') 64bit
Writing library : libebml v1.3.1 + libmatroska v1.4.2

Video
ID : 1
Format : AVC
Format/Info : Advanced Video Codec
Format profile : [email protected]
Format settings, CABAC : Yes
Format settings, ReFrames : 3 frames
Codec ID : V_MPEG4/ISO/AVC
Duration : 44mn 30s
Bit rate mode : Variable
Bit rate : 2 740 Kbps
Maximum bit rate : 4 110 Kbps
Width : 1 280 pixels
Height : 720 pixels
Display aspect ratio : 16:9
Frame rate mode : Constant
Frame rate : 23.976 (24000/1001) fps
Color space : YUV
Chroma subsampling : 4:2:0
Bit depth : 8 bits
Scan type : Progressive
Bits/(Pixel*Frame) : 0.124
Stream size : 866 MiB (78%)
Writing library : x264 core 148 r2715 7e75228
Encoding settings : cabac=1 / ref=3 / deblock=1:0:0 / analyse=0x1:0x111 / me=umh / subme=10 / psy=1 / psy_rd=1.00:0.00 / mixed_ref=1 / me_range=24 / chroma_me=1 / trellis=2 / 8x8dct=0 / cqm=0 / deadzone=21,11 / fast_pskip=1 / chroma_qp_offset=-2 / threads=8 / lookahead_threads=1 / sliced_threads=0 / nr=0 / decimate=1 / interlaced=0 / bluray_compat=0 / stitchable=1 / constrained_intra=0 / bframes=2 / b_pyramid=0 / b_adapt=2 / b_bias=0 / direct=3 / weightb=1 / open_gop=0 / weightp=2 / keyint=48 / keyint_min=25 / scenecut=0 / intra_refresh=0 / rc_lookahead=48 / rc=2pass / mbtree=1 / bitrate=2740 / ratetol=1.0 / qcomp=0.50 / qpmin=6 / qpmax=51 / qpstep=4 / cplxblur=20.0 / qblur=0.5 / vbv_maxrate=4110 / vbv_bufsize=5480 / nal_hrd=vbr / filler=0 / ip_ratio=1.40 / aq=1:1.00
Default : Yes
Forced : No

Audio #1
ID : 2
Format : AC-3
Format/Info : Audio Coding 3
Mode extension : CM (complete main)
Format settings, Endianness : Big
Codec ID : A_AC3
Duration : 44mn 31s
Bit rate mode : Constant
Bit rate : 384 Kbps
Channel(s) : 6 channels
Channel positions : Front: L C R, Side: L R, LFE
Sampling rate : 48.0 KHz
Frame rate : 31.250 fps (1536 spf)
Compression mode : Lossy
Stream size : 122 MiB (11%)
Language : Russian
Default : Yes
Forced : No

Audio #2
ID : 3
Format : AC-3
Format/Info : Audio Coding 3
Mode extension : CM (complete main)
Format settings, Endianness : Big
Codec ID : A_AC3
Duration : 44mn 31s
Bit rate mode : Constant
Bit rate : 384 Kbps
Channel(s) : 6 channels
Channel positions : Front: L C R, Side: L R, LFE
Sampling rate : 48.0 KHz
Frame rate : 31.250 fps (1536 spf)
Compression mode : Lossy
Stream size : 122 MiB (11%)
Language : Portuguese
Default : No
Forced : No

Text #1
ID : 4
Format : UTF-8
Codec ID : S_TEXT/UTF8
Codec ID/Info : UTF-8 Plain Text
Duration : 41mn 55s
Bit rate : 83 bps
Count of elements : 717
Stream size : 25.5 KiB (0%)
Title : SDH
Language : English
Default : No
Forced : No

Text #2
ID : 5
Format : UTF-8
Codec ID : S_TEXT/UTF8
Codec ID/Info : UTF-8 Plain Text
Duration : 41mn 55s
Bit rate : 72 bps
Count of elements : 614
Stream size : 22.2 KiB (0%)
Language : English
Default : No
Forced : No

Text #3
ID : 6
Format : UTF-8
Codec ID : S_TEXT/UTF8
Codec ID/Info : UTF-8 Plain Text
Duration : 41mn 55s
Bit rate : 0 bps
Count of elements : 6
Stream size : 204 Bytes (0%)
Title : Forced
Language : English
Default : No
Forced : No


Трекер:  [ 15-Апр-2018 18:48 ]

  

Скачать .torrent

Размер .torrent файла 50 KB


Размер: 4.93 GB
Хэш (hash) релиза: 951a7e3206cdb99b82790cb2eb5af1733a485d90
Подписка на обновления:

Еще никто не оставлял запись к записи скачать торрент Механизм O Meсanismo . Будь первым!

!Обратная связь