Software
Afterlife

Скачать через торрент Родина Чужой среди своих Фильм бесплатно в хорошем качестве torrent

Скачивайте на UnionPeer.org фильмы через торрент без регистрации. Новинки кино в хорошем качестве через торрент. На UnionPeer.org можно скачать через торрент фильмы 2014 и 2015 годов. Самые новые фильмы.

Скачать торрент Родина Чужой среди своих бесплатно через .torrent фильм мультфильм сериал

Статистика раздачи
Размер:  10.42 GB   |    Зарегистрирован:  7 дней   |    .torrent скачан:  29 раз   |   
Раздают:  1  
   
загрузка...
 
Автор Сообщение

Galfimbul

avatar Galfimbul


Родина / Homeland

Год выпуска: 2018
Страна: США
Жанр: Триллер, драма, криминал, детектив
Продолжительность: ~ 00:50:00

Перевод: Профессиональный (многоголосый закадровый) (AMS)

Режиссёр: Лесли Линка Глаттер, Майкл Куэста, Дэниэл Эттиэс

В ролях: Диего Клаттенхофф, Мори Стерлинг, Морена Баккарин, Клер Дэйнс, Навид Негабан, Мэнди Пэтинкин, Храч Титизиан, Омид Абтахи, Амир Арисонф и другие

Описание: В центре сюжета находятся сержант морской пехоты ВМФ США Николас Броуди, вернувшийся домой после восьми лет отсутствия без вести в Ираке, и Кэрри Мэтисон, офицер ЦРУ, которая подозревает его в причастности к подготовке террористической атаки на Америку.

/ Сэмпл

Качество: WEB-DL 720p
Контейнер: MKV

Видео: AVC, 1280x720 (16:9), 23.976 fps, ~3073 kbps, 0.270-0.320 bit/pixel
Аудио 1: Русский, AC3, 48 KHz, 6 channels, 384 kbps
Аудио 2: Английский, AC3, 48 KHz, 6 channels, 384 kbps
Субтитры: Английские [Softsub SRT]

Реклама: Присутствует звуковая (два раза: в начале и конце по 12 сек)
General
Unique ID : 333012507896131042423318547897688575652 (0xFA87E046DC9DA41BC66528EA4D28CEA4)
Complete name : /Homeland.S07.720p.WEB-DL.AMS/Homeland.S07E01.720p.WEB-DL.AMS.mkv
Format : Matroska
Format version : Version 4 / Version 2
File size : 1.61 GiB
Duration : 59mn 55s
Overall bit rate mode : Variable
Overall bit rate : 3 843 Kbps
Encoded date : UTC 2018-01-01 23:59:59
Writing application : mkvmerge v8.2.0 ('World of Adventure') 64bit
Writing library : libebml v1.3.1 + libmatroska v1.4.2

Video
ID : 1
Format : AVC
Format/Info : Advanced Video Codec
Format profile : [email protected]
Format settings, CABAC : Yes
Format settings, ReFrames : 5 frames
Codec ID : V_MPEG4/ISO/AVC
Duration : 59mn 55s
Bit rate mode : Variable
Bit rate : 3 073 Kbps
Maximum bit rate : 4 500 Kbps
Width : 1 280 pixels
Height : 720 pixels
Display aspect ratio : 16:9
Frame rate mode : Constant
Frame rate : 23.976 (24000/1001) fps
Color space : YUV
Chroma subsampling : 4:2:0
Bit depth : 8 bits
Scan type : Progressive
Bits/(Pixel*Frame) : 0.139
Stream size : 1.29 GiB (80%)
Default : Yes
Forced : No
Color range : Limited
Color primaries : BT.709
Transfer characteristics : BT.709
Matrix coefficients : BT.709

Audio #1
ID : 2
Format : AC-3
Format/Info : Audio Coding 3
Mode extension : CM (complete main)
Format settings, Endianness : Big
Codec ID : A_AC3
Duration : 59mn 55s
Bit rate mode : Constant
Bit rate : 384 Kbps
Channel(s) : 6 channels
Channel positions : Front: L C R, Side: L R, LFE
Sampling rate : 48.0 KHz
Frame rate : 31.250 fps (1536 spf)
Compression mode : Lossy
Stream size : 165 MiB (10%)
Language : Russian
Default : Yes
Forced : No

Audio #2
ID : 3
Format : AC-3
Format/Info : Audio Coding 3
Mode extension : CM (complete main)
Format settings, Endianness : Big
Codec ID : A_AC3
Duration : 59mn 55s
Bit rate mode : Constant
Bit rate : 384 Kbps
Channel(s) : 6 channels
Channel positions : Front: L C R, Side: L R, LFE
Sampling rate : 48.0 KHz
Frame rate : 31.250 fps (1536 spf)
Compression mode : Lossy
Stream size : 165 MiB (10%)
Language : English
Default : No
Forced : No

Text #1
ID : 4
Format : UTF-8
Codec ID : S_TEXT/UTF8
Codec ID/Info : UTF-8 Plain Text
Duration : 57mn 13s
Bit rate : 63 bps
Count of elements : 861
Stream size : 26.8 KiB (0%)
Language : English
Default : No
Forced : No

Text #2
ID : 5
Format : UTF-8
Codec ID : S_TEXT/UTF8
Codec ID/Info : UTF-8 Plain Text
Duration : 57mn 13s
Bit rate : 72 bps
Count of elements : 1016
Stream size : 30.6 KiB (0%)
Title : SDH
Language : English
Default : No
Forced : No

Menu
00:00:00.000 : en:Studio Logo
00:00:04.000 : en:Previously On
00:01:53.000 : en:Title Sequence
00:02:03.000 : en:Josie becomes upset because of Bill, Carrie goes for an interview
00:07:14.000 : en:McClendon gets punished
00:10:26.000 : en:Brett does not want to cancel the broadcast
00:12:03.000 : en:Carrie asks the Senator to meet a person
00:16:36.000 : en:Sharon shoots Brett's speech
00:20:14.000 : en:Carrie checks into different hotels
00:23:53.000 : en:Elizabeth orders David to fix the issue
00:26:08.000 : en:Sharon wants to quit and Brett requests her to stay with him
00:30:05.000 : en:Carrie complains about a guy in the hotel
00:32:30.000 : en:Carrie changes the meeting place
00:34:40.000 : en:David meets Saul in prison and offers him a job
00:38:30.000 : en:Josie sees Carrie with Dante
00:40:34.000 : en:Carrie tries to convince Dante
00:44:55.000 : en:David orders the Secret service team to leave his place
00:45:44.000 : en:Carrie, Josie and Bill have a serious discussion
00:50:36.000 : en:McClendon gets sick
00:57:10.000 : en:End Credits


Трекер:  [ 15-Апр-2018 18:18 ]

  

Скачать .torrent

Размер .torrent файла 105 KB


Размер: 10.42 GB
Хэш (hash) релиза: 0c41b0b343ba5ac52a29d0a7090b1b48a6f75ee8
Подписка на обновления:

Торренты, похожие на Родина Чужой среди своих скачать торрент

Форум Название Автор Размер S L Добавлен
Зарубежные сериалы ·· Родина / Чужой среди своих / Homeland / Сезон: 7 / Серии: 1-2 из 12 (Лесли Линка Глаттер, Майкл Куэста, Дэниэл Эттиэс) [2018, США, триллер, драма, криминал, детектив, WEB-DLRip] MVO (NewStudio) Galfimbul 21250580481.98 GB 0 0 1519563238

15:53

25-Фев-18

Зарубежные сериалы ·· Родина / Чужой среди своих / Homeland / Сезон: 7 / Серии: 1-10 из 12 (Лесли Линка Глаттер, Майкл Куэста, Дэниэл Эттиэс) [2018, США, Триллер, драма, криминал, детектив, WEBRip] DVO (Gears Media) + Original Galfimbul 63693571765.93 GB 0 0 1519027838

11:10

19-Фев-18

Зарубежные сериалы ·· Родина / Чужой среди своих / Homeland / Сезон: 7 / Серии: 1 из 12 (Лесли Линка Глаттер, Майкл Куэста, Дэниэл Эттиэс) [2018, США, Триллер, драма, криминал, детектив, WEBRip 720p] DVO (Gears Media) + Original Galfimbul 18423775761.72 GB 0 0 1518974691

20:24

18-Фев-18

Зарубежные сериалы ·· Родина / Чужой среди своих / Homeland / Сезон: 7 / Серия: 1 из 12 (Лесли Линка Глаттер, Майкл Куэста, Дэниэл Эттиэс) [2018, США, триллер, драма, детектив, WEB-DL 720p] MVO (LostFilm) + Original + Subs (Rus, Eng) Galfimbul 19576492241.82 GB 0 0 1518591262

09:54

14-Фев-18

Зарубежные сериалы ·· Родина / Чужой среди своих / Homeland / Сезон: 7 / Серия: 1 из 12 (Майкл Куэста) [2018, США, Триллер, драма, детектив, WEB-DL 1080p] MVO (LostFilm) + Original + Subs (Rus, Eng) Galfimbul 56037300495.22 GB 0 0 1518589469

09:24

14-Фев-18

Еще никто не оставлял запись к записи скачать торрент Родина Чужой среди своих . Будь первым!

!Обратная связь