Bethany Whitmore | Storie di ordinaria follia | Stream Link 2

Скачать через торрент Охота на воров Den of Thieves бесплатно русская версия torrent активатор

Статистика раздачи
Размер:  1.52 GB   |    Зарегистрирован:  3 месяца 3 дня   |    .torrent скачан:  49 раз   |   
Раздают:  2  
   
загрузка...
 
Автор Сообщение

Galfimbul

avatar Galfimbul


Охота на воров / Den of Thieves
-

6.652 / 10 7.10 / 10
Год выпуска: 2018
Страна: США
Жанр: Боевик, триллер, драма, криминал, детектив
Продолжительность: 02:20:01

Перевод: Дублированный (iTunes)
Оригинальная аудиодорожка: Есть
Cубтитры: Английские
Режиссёр: Кристиан Гьюдгэст
Сценарий: Кристиан Гьюдгэст, Пол Шойринг
Продюсер: Орен Авив, Джейсон Бархидт, Джерард Батлер
Оператор: Терри Стэйси
Композитор: Клифф Мартинес
Художник: Кара Линдстрём, Элизабет Боллер, Терри Андерсон
Монтаж: David Cox, Джоэл Кокс, Nathan Godley
В ролях: Джерард Батлер, Пабло Шрайбер, О’Ши Джексон мл., Фифти Сент, Медоу Уильямс, Морис Комт, Брайан Ван Холт, Ивэн Джонс, Мо, Каиви Лайман

Сборы в США: $44 947 622
Сборы в мире: + $29 900 000 = $74 847 622
Сборы в России: $1 340 251

Мировая премьера: 18 января 2018
Премьера (РФ): 8 февраля 2018, «MEGOGO Distribution»

Описание: Большой Ник — начальник элитного подразделения полиции Лос-Анджелеса — ежедневно доказывает, что его команда более крутая, чем те, на кого они охотятся. Когда коп узнает, что легендарный и неуловимый вор планирует дерзкое ограбление Федерального резервного банка США, то он решает помешать этому любым способом. И играть по правилам он не привык.
Качество исходника: WEB-DL 1080p (NNMClub)
Качество: WEB-DLRip
Тип: SD (480p)
Контейнер: M4V
Видео: H.264, 640x356 анаморф 852х356, 2.40:1, 1 300 Kbps, 23.976 fps

Аудио 1: Русский/Дублированный (iTunes), AAC / 2.0 / 128 Kbps / 48.0 KHz
Аудио 2: Английский/Оригинальная дорожка , AAC / 2.0 / 128 Kbps / 48.0 KHz

Субтитры: Английские полные
Sort Name: Den of Thieves
XID: Apple:vendor_id:2017-916105
contentID: 1338032525
Copyright: © 2018 STX FINANCING, LLC. ALL RIGHTS RESERVED.
Screenwriters: Кристиан Гьюдгэст, Пол Шойринг
Producers: Орен Авив, Джейсон Бархидт, Джерард Батлер
Director: Кристиан Гьюдгэст
Cast: Джерард Батлер, Джордан Бриджес, Пабло Шрайбер, Ивэн Джонс, О`Ши Джексон мл., 50 Cent, Соня Балморес, Эрик Браден, Брайан Ван Холт, Морис Комт
Studio: STX Entertainment
Rating: 5
Long Description: Большой Ник — начальник элитного подразделения полиции Лос-Анджелеса — ежедневно доказывает, что его команда более крутая, чем те, на кого они охотятся. Когда коп узнает, что легендарный и неуловимый вор планирует дерзкое ограбление Федерального резервного банка США, то он решает помешать этому любым способом. И играть по правилам он не привык.
Description: Большой Ник — начальник элитного подразделения полиции Лос-Анджелеса — ежедневно доказывает, что его команда более крутая, чем те, на кого они охотятся.
Release Date: 2018-01-19T08:00:00Z
Genre: Action & Adventure
Artist: Christian Gudegast
Name: Den of Thieves
General
Complete name : /Users/imac/HandBrake/Den.of.Thieves.(480p).(pk).m4v
Format : MPEG-4
Codec ID : M4V
File size : 1.52 GiB
Duration : 2h 20mn
Overall bit rate mode : Variable
Overall bit rate : 1 555 Kbps
Movie name : Den of Thieves
Performer : Christian Gudegast
Director : Кристиан Гьюдгэст
Actor : Джерард Батлер / Джордан Бриджес / Пабло Шрайбер / Ивэн Джонс / О`Ши Джексон мл. / 50 Cent / Соня Балморес / Эрик Браден / Брайан Ван Холт / Морис Комт
Screenplay by : Кристиан Гьюдгэст / Пол Шойринг
Producer : Орен Авив / Джейсон Бархидт / Джерард Батлер
Production studio : STX Entertainment
Genre : Action & Adventure
ContentType : Short Film
Description : Большой Ник — начальник элитного подразделения полиции Лос-Анджелеса — ежедневно доказывает, что его команда более крутая, чем те, на кого они охотятся.
Recorded date : UTC 2018-01-19 08:00:00
Encoded date : UTC 2018-04-15 14:33:06
Tagged date : UTC 2018-04-15 14:37:30
Copyright : © 2018 STX FINANCING, LLC. ALL RIGHTS RESERVED.
Cover : Yes
Rating : None
Title/Sort : Den of Thieves
LongDescription : Большой Ник — начальник элитного подразделения полиции Лос-Анджелеса — ежедневно доказывает, что его команда более крутая, чем те, на кого они охотятся. Когда коп узнает, что легендарный и неуловимый вор планирует дерзкое ограбление Федерального резервного банка США, то он решает помешать этому любым способом. И играть по правилам он не привык.
AppleStoreCatalogID : 1338032525
Vendor : Apple:vendor_id:2017-916105
ContentRating : mpaa|R|400|

Video #1
ID : 1
Format : AVC
Format/Info : Advanced Video Codec
Format profile : [email protected]
Format settings, CABAC : No
Format settings, ReFrames : 2 frames
Codec ID : avc1
Codec ID/Info : Advanced Video Coding
Duration : 2h 20mn
Bit rate : 1 300 Kbps
Width : 640 pixels
Height : 356 pixels
Display aspect ratio : 2.40:1
Frame rate mode : Variable
Frame rate : 23.976 fps
Minimum frame rate : 23.974 fps
Maximum frame rate : 23.981 fps
Color space : YUV
Chroma subsampling : 4:2:0
Bit depth : 8 bits
Scan type : Progressive
Bits/(Pixel*Frame) : 0.238
Stream size : 1.27 GiB (84%)
Title : Main Program
Writing library : x264 core 155 r2893 b00bcaf
Encoding settings : cabac=0 / ref=2 / deblock=1:0:0 / analyse=0x1:0x111 / me=umh / subme=6 / psy=1 / psy_rd=1.00:0.00 / mixed_ref=1 / me_range=16 / chroma_me=1 / trellis=0 / 8x8dct=0 / cqm=0 / deadzone=21,11 / fast_pskip=1 / chroma_qp_offset=-2 / threads=11 / lookahead_threads=1 / sliced_threads=0 / nr=0 / decimate=1 / interlaced=0 / bluray_compat=0 / constrained_intra=0 / bframes=0 / weightp=0 / keyint=240 / keyint_min=24 / scenecut=40 / intra_refresh=0 / rc_lookahead=40 / rc=2pass / mbtree=1 / bitrate=1300 / ratetol=1.0 / qcomp=0.60 / qpmin=0 / qpmax=69 / qpstep=4 / cplxblur=20.0 / qblur=0.5 / vbv_maxrate=5000 / vbv_bufsize=5000 / nal_hrd=none / filler=0 / ip_ratio=1.40 / aq=1:1.00
Language : English
Encoded date : UTC 2018-04-15 14:33:06
Tagged date : UTC 2018-04-15 14:33:11
Color range : Limited
Color primaries : BT.709
Transfer characteristics : BT.709
Matrix coefficients : BT.709

Video #2
ID : 6
Format : JPEG
Codec ID : jpeg
Duration : 2h 20mn
Bit rate mode : Variable
Bit rate : 618 bps
Width : 640 pixels
Height : 267 pixels
Display aspect ratio : 2.40:1
Frame rate mode : Variable
Frame rate : 0.002 fps
Minimum frame rate : 0.001 fps
Maximum frame rate : 0.003 fps
Color space : YUV
Chroma subsampling : 4:2:0
Bit depth : 8 bits
Compression mode : Lossy
Bits/(Pixel*Frame) : 1.808
Stream size : 491 KiB (0%)
Title : Chapter Images
Language : English
Encoded date : UTC 2018-04-15 14:33:36
Tagged date : UTC 2018-04-15 14:33:36

Audio #1
ID : 2
Format : AAC
Format/Info : Advanced Audio Codec
Format profile : LC
Codec ID : 40
Duration : 2h 20mn
Source duration : 2h 20mn
Bit rate mode : Variable
Bit rate : 125 Kbps
Maximum bit rate : 197 Kbps
Channel(s) : 2 channels
Channel positions : Front: L R
Sampling rate : 48.0 KHz
Compression mode : Lossy
Stream size : 125 MiB (8%)
Source stream size : 125 MiB (8%)
Title : Russian Stereo
Language : Russian
Encoded date : UTC 2018-04-15 14:33:06
Tagged date : UTC 2018-04-15 14:33:33

Audio #2
ID : 3
Format : AAC
Format/Info : Advanced Audio Codec
Format profile : LC
Codec ID : 40
Duration : 2h 20mn
Source duration : 2h 20mn
Bit rate mode : Variable
Bit rate : 123 Kbps
Maximum bit rate : 209 Kbps
Channel(s) : 2 channels
Channel positions : Front: L R
Sampling rate : 48.0 KHz
Compression mode : Lossy
Stream size : 123 MiB (8%)
Source stream size : 123 MiB (8%)
Title : English Stereo
Language : English
Encoded date : UTC 2018-04-15 14:33:06
Tagged date : UTC 2018-04-15 14:33:33

Text
ID : 4
Format : Timed Text
Muxing mode : sbtl
Codec ID : tx3g
Duration : 2h 13mn
Bit rate mode : Variable
Bit rate : 51 bps
Stream size : 49.6 KiB (0%)
Title : English full
Language : English
Encoded date : UTC 2018-04-15 14:33:06
Tagged date : UTC 2018-04-15 14:33:32

Menu #1
00:00:00.000 : 1
00:09:15.000 : 2
00:18:58.000 : 3
00:31:49.000 : 4
00:38:14.000 : 5
00:48:11.000 : 6
00:58:05.000 : 7
01:08:43.000 : 8
01:16:24.000 : 9
01:26:19.000 : 10
01:41:35.000 : 11
01:49:43.000 : 12
02:08:22.000 : 13

Menu #2
ID : 5
Codec ID : text
Duration : 2h 20mn
Language : English
Encoded date : UTC 2018-04-15 14:33:33
Tagged date : UTC 2018-04-15 14:33:33
00:00:00.000 : 1
00:09:15.000 : 2
00:18:58.000 : 3
00:31:49.000 : 4
00:38:14.000 : 5
00:48:11.000 : 6
00:58:05.000 : 7
01:08:43.000 : 8
01:16:24.000 : 9
01:26:19.000 : 10
01:41:35.000 : 11
01:49:43.000 : 12
02:08:22.000 : 13
Bit rate mode : VBR
x264 [info]: frame I:2623  Avg QP:15.52  size: 32462
x264 [info]: frame P:198801 Avg QP:18.22  size:  6438
x264 [info]: mb I  I16..4: 15.4%  0.0% 84.6%
x264 [info]: mb P  I16..4:  1.0%  0.0%  2.7%  P16..4: 47.3% 23.3%  9.3%  0.0%  0.0%    skip:16.4%
x264 [info]: coded y,uvDC,uvAC intra: 68.0% 81.6% 60.7% inter: 24.8% 22.7% 5.2%
x264 [info]: i16 v,h,dc,p: 50% 13%  8% 28%
x264 [info]: i4 v,h,dc,ddl,ddr,vr,hd,vl,hu: 39% 14% 12%  5%  6%  7%  6%  6%  4%
x264 [info]: i8c dc,h,v,p: 46% 16% 31%  8%
x264 [info]: ref P L0: 71.0% 29.0%
x264 [info]: kb/s:1299.79

Релиз подготовлен для просмотра на Apple TV, iPad, iPhone, iPod Touch.
Для просмотра данного релиза на компьютере с ОС Windows рекомендуется использовать VLC media player

Трекер:  [ 15-Апр-2018 18:06 ]

  

Скачать .torrent

Размер .torrent файла 31 KB


Размер: 1.52 GB
Хэш (hash) релиза: fb0dbcb65971e05bdfd3217219d7847d1cbfc1af

Торренты, похожие на Охота на воров Den of Thieves скачать торрент

Форум Название Автор Размер S L Добавлен
Видео (iPhone/iPod Touch/iPad) ·· [iPad] Охота на воров / Den of Thieves (Кристиан Гьюдгэст / Christian Gudegast ) [2018, США, Боевик, триллер, драма, криминал, детектив, WEB-DLRip, SD (576p)] DUB + Original + sub (eng) Galfimbul 25789015732.4 GB 0 0 1523802974

17:36

15-Апр-18

Видео (iPhone/iPod Touch/iPad) ·· Охота на воров / Den of Thieves (Кристиан Гьюдгэст / Christian Gudegast ) [2018, США, Боевик, триллер, драма, криминал, детектив, WEB-DL, HD (720p)] DUB + Original + sub (eng) Galfimbul 54165121875.04 GB 0 0 1523703999

14:06

14-Апр-18

Видео (iPhone/iPod Touch/iPad) ·· [ATV3] Охота на воров / Den of Thieves (Кристиан Гьюдгэст / Christian Gudegast ) [2018, США, Боевик, триллер, драма, криминал, детектив, WEB-DL, HD (1080p)] DUB + Original + sub (eng) Galfimbul 62217328615.79 GB 0 0 1523658980

01:36

14-Апр-18

Видео (iPhone/iPod Touch/iPad) ·· [ATV3] Охота на воров / Den of Thieves (Кристиан Гьюдгэст / Christian Gudegast ) [2018, США, Боевик, триллер, драма, криминал, детектив, WEB-DL, HD (1080p)] AMZN DUB + Original + sub (eng) Galfimbul 1084897801610.1 GB 0 0 1523615777

13:36

13-Апр-18

Еще никто не оставлял запись к записи скачать торрент Охота на воров Den of Thieves . Будь первым!

!Обратная связь