All Other News Shows And Articles
Eps2 Famous In Love Season 2

Скачать через торрент Жертва Prey Фильм бесплатно в хорошем качестве torrent

Скачивайте на UnionPeer.org фильмы через торрент без регистрации. Новинки кино в хорошем качестве через торрент. На UnionPeer.org можно скачать через торрент фильмы 2014 и 2015 годов. Самые новые фильмы.

Скачать торрент Жертва Prey бесплатно через .torrent фильм мультфильм сериал

Статистика раздачи
Размер:  11.29 GB   |    Зарегистрирован:  8 дней   |    .torrent скачан:  33 раза   |   
Раздают:  1  
   
загрузка...
 
Автор Сообщение

Galfimbul

avatar Galfimbul


Жертва | Добыча | Prey

«Полицейский. Семьянин. В розыске!»

Год выпуска: 2014 (1 сезон)
Страна: Великобритания
Жанр: Триллер, драма, криминал
Продолжительность: ~ 00:46:00
Перевод: Профессиональный многоголосый SDI Media
Субтитры: Русские, английские

Режиссёр: Ник Мерфи / Nick Murphy

В ролях: Джон Симм (Инспектор Маркус Фэрроу), Рози Кавальеро (Старший инспектор Сьюзан Рейнхарт), Анастасия Хилл (Старший инспектор Андреа МакКензи), Крэйг Паркинсон
(Инспектор Шон Девлин), Бенедикт Вонг (Сержант Эшли Чен), Струан Роджер (Кристофер «Тофер» Ломакс), Хезер Пис (Эби Фэрроу), Эзра Дент-Ватсон (Финн Фэрроу), Эдриен Эдмондсон (Детектив Уорнер), Рэй Эммет Браун (Тони Рейнхарт) и др.

Описание: Находящийся в бегах, обвиненный в совершении страшного преступления, детектив Маркус Фэрроу пытается доказать свою невиновность, в то время как его выслеживают его бывшие друзья и коллеги.



<div class="sp-wrap">
<div class="sp-head folded">Доп. информация
</div>
<div class="sp-body">
Источником русской аудиодорожки послужил релиз miha2154


Перевод субтитров: bellat, AvoirBanane, nadin4slam, mashunik, yurabukin, Impala05, mashunik</div>
</div>
Качество: BDRip 1080p
Формат: MKV
Видео кодек: H.264
Аудио кодек: AC3, DTS
Видео: MPEG-4 AVC, 1920x1080 (16:9), 25.000 fps, 10.0 Мbps, 0.193 bpp
Аудио 1: [Русский] AC3, 48 kHz, 2 ch, 192 kbps
Аудио 2: [Английский] DTS, 48 kHz, 2 ch, 1509 kbps
Субтитры: Русские, английские (SRT)
Реклама: Отсутствует

General
Unique ID                   : 227299506802942716250965882338019943596 (0xAB004AEB15F33CB7921563D051A8A4AC)
Complete name               : F:\...\Prеy.S01.1080p.BDRip\Prey.s01e01.1080p.BDRip.Rus.Eng.mkv
Format                      : Matroska
Format version              : Version 4 / Version 2
File size                   : 3.76 GiB
Duration                    : 46 min 1 s
Overall bit rate            : 11.7 Mb/s
Encoded date                : UTC 2018-04-15 02:14:44
Writing application         : mkvmerge v7.3.0 ('Nouages') 64bit built on Oct 22 2014 18:53:34
Writing library             : libebml v1.3.0 + libmatroska v1.4.1

Video
ID                          : 1
Format                      : AVC
Format/Info                 : Advanced Video Codec
Format profile              : [email protected]
Format settings             : CABAC / 4 Ref Frames
Format settings, CABAC      : Yes
Format settings, ReFrames   : 4 frames
Codec ID                    : V_MPEG4/ISO/AVC
Duration                    : 46 min 0 s
Bit rate                    : 10 000 kb/s
Width                       : 1 920 pixels
Height                      : 1 080 pixels
Display aspect ratio        : 16:9
Frame rate mode             : Constant
Frame rate                  : 25.000 FPS
Color space                 : YUV
Chroma subsampling          : 4:2:0
Bit depth                   : 8 bits
Scan type                   : Progressive
Bits/(Pixel*Frame)          : 0.193
Stream size                 : 3.21 GiB (85%)
Writing library             : x264 core 146 r2538 121396c
Encoding settings           : cabac=1 / ref=4 / deblock=1:-3:-3 / analyse=0x3:0x133 / me=umh / subme=10 / psy=1 / psy_rd=1.00:0.00 / mixed_ref=1 / me_range=48 / chroma_me=1 / trellis=2 / 8x8dct=1 / cqm=0 / deadzone=21,11 / fast_pskip=0 / chroma_qp_offset=-2 / threads=6 / lookahead_threads=4 / sliced_threads=0 / nr=0 / decimate=0 / interlaced=0 / bluray_compat=0 / constrained_intra=0 / bframes=6 / b_pyramid=0 / b_adapt=2 / b_bias=0 / direct=0 / weightb=1 / open_gop=0 / weightp=2 / keyint=240 / keyint_min=24 / scenecut=40 / intra_refresh=0 / rc_lookahead=60 / rc=2pass / mbtree=1 / bitrate=10000 / ratetol=1.0 / qcomp=0.70 / qpmin=0 / qpmax=69 / qpstep=4 / cplxblur=20.0 / qblur=0.5 / ip_ratio=1.40 / aq=1:1.00
Default                     : Yes
Forced                      : No

Audio #1
ID                          : 2
Format                      : AC-3
Format/Info                 : Audio Coding 3
Codec ID                    : A_AC3
Duration                    : 46 min 0 s
Bit rate mode               : Constant
Bit rate                    : 192 kb/s
Channel(s)                  : 2 channels
Channel positions           : Front: L R
Sampling rate               : 48.0 kHz
Frame rate                  : 31.250 FPS (1536 SPF)
Bit depth                   : 16 bits
Compression mode            : Lossy
Stream size                 : 63.2 MiB (2%)
Title                       : SDI Media
Language                    : Russian
Service kind                : Complete Main
Default                     : Yes
Forced                      : No

Audio #2
ID                          : 3
Format                      : DTS
Format/Info                 : Digital Theater Systems
Codec ID                    : A_DTS
Duration                    : 46 min 1 s
Bit rate mode               : Constant
Bit rate                    : 1 509 kb/s
Channel(s)                  : 2 channels
Channel positions           : Front: L R
Sampling rate               : 48.0 kHz
Frame rate                  : 93.750 FPS (512 SPF)
Bit depth                   : 16 bits
Compression mode            : Lossy
Stream size                 : 497 MiB (13%)
Language                    : English
Default                     : No
Forced                      : No

Text #1
ID                          : 4
Format                      : UTF-8
Codec ID                    : S_TEXT/UTF8
Codec ID/Info               : UTF-8 Plain Text
Duration                    : 42 min 43 s
Bit rate                    : 85 b/s
Count of elements           : 507
Stream size                 : 26.6 KiB (0%)
Language                    : Russian
Default                     : No
Forced                      : No

Text #2
ID                          : 5
Format                      : UTF-8
Codec ID                    : S_TEXT/UTF8
Codec ID/Info               : UTF-8 Plain Text
Duration                    : 44 min 42 s
Bit rate                    : 48 b/s
Count of elements           : 519
Stream size                 : 15.8 KiB (0%)
Language                    : English
Default                     : No
Forced                      : No

Menu
00:00:00.000                : en:00:00:00.000
00:08:09.560                : en:00:08:09.560
00:17:20.320                : en:00:17:20.320
00:24:52.560                : en:00:24:52.560
00:31:52.680                : en:00:31:52.680
00:40:05.480                : en:00:40:05.480
00:46:00.480                : en:00:46:00.480




Трекер:  [ 15-Апр-2018 17:48 ]

  

Скачать .torrent

Размер .torrent файла 57 KB


Размер: 11.29 GB
Хэш (hash) релиза: 2b8b7b3bc92afa863b0cbb3b747eaad62e15d5aa
Подписка на обновления:

Еще никто не оставлял запись к записи скачать торрент Жертва Prey . Будь первым!

!Обратная связь