Statistical Analysis for Business and Economics
Bushwick.German.2017.AC3.BDRiP.x264-XF

Скачать через торрент Квартирник НТВ у Маргулиса Фильм бесплатно в хорошем качестве torrent

Скачивайте на UnionPeer.org фильмы через торрент без регистрации. Новинки кино в хорошем качестве через торрент. На UnionPeer.org можно скачать через торрент фильмы 2014 и 2015 годов. Самые новые фильмы.

Скачать торрент Квартирник НТВ у Маргулиса бесплатно через .torrent фильм мультфильм сериал

Статистика раздачи
Размер:  3.2 GB   |    Зарегистрирован:  6 дней   |    .torrent скачан:  20 раз   |   
Раздают:  1  
   
загрузка...
 
Автор Сообщение

Galfimbul

avatar Galfimbul


Квартирник НТВ у Маргулиса (Михаил Жванецкий. Музыка моей молодости) НТВ HD 2018.04.15

Жанр: Rock, Pop
Продолжительность: 01:02:00

Описание: Душевный рок- поп концерт, квартирник, который происходит в гостях у Маргулиса. В теплой и душевной атмосфере друзья Маргулиса исполнят свои самые известные и любимые песни и заодно расскажут историю создания песен. Найк Борзов, В. Сюткин, С. Чиграков, А.Ф. Скляр и многие-многие другие.

Ведущий: Евгений Маргулис

Треклист:

Качество: HDTV
Разрешение видео/развертка: 1080i
Контейнер: TS
Видео кодек: H.264
Аудио кодек: MP2
Видео: H264; 1920x1080 (16:9); 25.000 fps; ~6 825 kb/s
Аудио: MPEG Audio 48000Hz stereo 192 Кбит/сек
GeneralID : 1 (0x1)Complete name : L:\Temp\Квартирник НТВ у Маргулиса (Михаил Жванецкий. Музыка моей молодости) НТВ HD 2018.04.15.tsFormat : MPEG-TSFile size : 3.20 GiBDuration : 1 h 2 minOverall bit rate mode : VariableOverall bit rate : 7 384 kb/s

VideoID : 1004 (0x3EC)Menu ID : 304 (0x130)Format : AVCFormat/Info : Advanced Video CodecFormat profile : [email protected] settings : CABAC / 4 Ref FramesFormat settings, CABAC : YesFormat settings, RefFrames : 4 framesCodec ID : 27Duration : 1 h 2 minBit rate : 6 825 kb/sWidth : 1 920 pixelsHeight : 1 080 pixelsDisplay aspect ratio : 16:9Frame rate : 25.000 FPSStandard : ComponentColor space : YUVChroma subsampling : 4:2:0Bit depth : 8 bitsScan type : InterlacedScan type, store method : Separated fieldsScan order : Top Field FirstBits/(Pixel*Frame) : 0.132Stream size : 2.96 GiB (92%)Color range : LimitedColor primaries : BT.709Transfer characteristics : BT.709Matrix coefficients : BT.709

AudioID : 2004 (0x7D4)Menu ID : 304 (0x130)Format : MPEG AudioFormat version : Version 1Format profile : Layer 2Codec ID : 3Duration : 1 h 2 minBit rate mode : ConstantBit rate : 192 kb/sChannel(s) : 2 channelsSampling rate : 48.0 kHzCompression mode : LossyStream size : 85.2 MiB (3%)Language : Russian


Трекер:  [ 15-Апр-2018 17:42 ]

  

Скачать .torrent

Размер .torrent файла 16 KB


Размер: 3.2 GB
Хэш (hash) релиза: 354a406821f7d7f795137606514acf8a3c2fe8d3
Подписка на обновления:

Торренты, похожие на Квартирник НТВ у Маргулиса скачать торрент

Форум Название Автор Размер S L Добавлен
Развлекательные телепередачи и шоу ·· Квартирник НТВ у Маргулиса. Михаил Жванецкий. HTB HD 2018.04.14 [2018, Jazz, HDTV, 1080i] Galfimbul 34358908203.2 GB 0 0 1524166927

22:42

19-Апр-18

Еще никто не оставлял запись к записи скачать торрент Квартирник НТВ у Маргулиса . Будь первым!

!Обратная связь