Under the Dome | Paula Soldevila | Ernie Alexander

Скачать через торрент Нарутару Narutaru: Mukuro Naru Hoshi Tama Taru Ko Фильм бесплатно в хорошем качестве torrent

Скачивайте на UnionPeer.org фильмы через торрент без регистрации. Новинки кино в хорошем качестве через торрент. На UnionPeer.org можно скачать через торрент фильмы 2014 и 2015 годов. Самые новые фильмы.

Скачать торрент Нарутару Narutaru: Mukuro Naru Hoshi Tama Taru Ko бесплатно через .torrent фильм мультфильм сериал

Статистика раздачи
Размер:  1.44 GB   |    Зарегистрирован:  1 месяц 10 дней   |    .torrent скачан:  29 раз   |   
Раздают:  1  
   
загрузка...
 
Автор Сообщение

Galfimbul

avatar Galfimbul



Нарутару
Оригинальное название: Narutaru: Mukuro Naru Hoshi Tama Taru Ko
Английское название: Shadow Star Narutaru
Период трансляции: c 08.07.2003 по 30.09.2003
Страна: Япония
Жанр: драма, мистика, ужасы, сэйнэн
Продолжительность: 13 эп., ~25 мин.
Перевод: Субтитры (Drizzt De'Uorden / Miyakawa Yukio)
Режиссер: Иино Тосиаки
Студия:
Описание: Дочь лётчика-испытателя Сиина Тамаи, добрая, общительная и храбрая девочка, прилетает на каникулы к бабушке и дедушке, живущим на дальнем островке. На дне бухты она находит странное создание, формой напоминающее большую симпатичную морскую звезду. Девочка даёт ему имя Хосимару (т.е. "круглая звезда") и берёт с собой в город, благо Хосимару обычно флегматичен и с лёгкостью может сойти за мягкую игрушку или забавный рюкзак. Но так ли прост неведомый пришелец? К тому же в городе внезапно выясняется, что у странного существа есть сородичи, связанные с другими людьми, и не все они выглядят столь доброжелательными. Притом армия не дремлет, власти скрывают, заговоры зреют, атмосфера сгущается... Удастся ли героям сохранить жизнь и рассудок перед лицом творящегося зла, неизъяснимого - и вполне человеческого? Сумеет ли Сиина защитить близких ей людей?
Доп. информация: Сериал снят по одноимённой манге Кито Мохиро.
В использованных субтитрах исправлена основная масса орфографических и пунктуационных ошибок и опечаток, устранён ряд неточностей и англицизмов; стиль и содержание перевода в целом изменению не подвергались.
1. Оно в форме звезды
2. Несчастье средь бела дня
3. Чёрный - номер 1
4. Тень детского следа
5. Игра ангела
6. Его слова были правдой
7. Аромат цветов для тех, кто сражается, и для тех, кто умирает...
8. Не закрывай глаза
9. Жизнь рыбы. Жизнь человека
10. То, что я могу сделать для тебя сейчас
11. Невидимый горизонт
12. Мои глаза - глаза жертвы. Мои руки - руки обидчика
13. То, чем мы награждаем детей будущего
Качество видео: DVDRip
Формат: MP4
Видео кодек: H.264
Аудио кодек: AAC
Видео: MPEG4 Video (H264) 368x272 23.97fps 473kbps
Аудио: AAC 48000Hz stereo 158kbps
Format : MPEG-4
Format profile : Base Media
Codec ID : isom (isom/avc1/iso6)
File size : 113 MiB
Duration : 24 min 49 s
Overall bit rate mode : Variable
Overall bit rate : 635 kb/s

Video
ID : 1
Format : AVC
Format/Info : Advanced Video Codec
Format profile : [email protected]
Format settings : CABAC / 3 Ref Frames
Format settings, CABAC : Yes
Format settings, ReFrames : 3 frames
Codec ID : avc1
Codec ID/Info : Advanced Video Coding
Duration : 24 min 49 s
Bit rate : 468 kb/s
Maximum bit rate : 2 090 kb/s
Width : 368 pixels
Height : 272 pixels
Display aspect ratio : 4:3
Frame rate mode : Constant
Frame rate : 29.970 (30000/1001) FPS
Original frame rate : 29.970 (29970/1000) FPS
Color space : YUV
Chroma subsampling : 4:2:0
Bit depth : 8 bits
Scan type : Progressive
Bits/(Pixel*Frame) : 0.156
Stream size : 84.1 MiB (75%)
Title : [email protected]-DEV-rev248-g39d5978-master
Writing library : x264 core 146 r2538 121396c
Encoding settings : cabac=1 / ref=3 / deblock=1:0:0 / analyse=0x1:0x111 / me=hex / subme=5 / psy=1 / psy_rd=1.00:0.00 / mixed_ref=1 / me_range=16 / chroma_me=1 / trellis=1 / 8x8dct=0 / cqm=0 / deadzone=21,11 / fast_pskip=1 / chroma_qp_offset=0 / threads=6 / lookahead_threads=1 / sliced_threads=0 / nr=0 / decimate=1 / interlaced=0 / bluray_compat=0 / constrained_intra=0 / bframes=3 / b_pyramid=0 / b_adapt=1 / b_bias=0 / direct=1 / weightb=1 / open_gop=0 / weightp=2 / keyint=250 / keyint_min=25 / scenecut=40 / intra_refresh=0 / rc_lookahead=30 / rc=abr / mbtree=1 / bitrate=468 / ratetol=1.0 / qcomp=0.60 / qpmin=0 / qpmax=69 / qpstep=4 / ip_ratio=1.40 / aq=1:1.00

Audio
ID : 2
Format : AAC
Format/Info : Advanced Audio Codec
Format profile : LC
Codec ID : mp4a-40-2
Duration : 24 min 49 s
Bit rate mode : Variable
Bit rate : 158 kb/s
Maximum bit rate : 181 kb/s
Channel(s) : 2 channels
Channel positions : Front: L R
Sampling rate : 48.0 kHz
Frame rate : 46.875 FPS (1024 SPF)
Compression mode : Lossy
Stream size : 28.1 MiB (25%)


Трекер:  [ 15-Апр-2018 17:36 ]

  

Скачать .torrent

Размер .torrent файла 16 KB


Размер: 1.44 GB
Хэш (hash) релиза: 813e03de7a509206fd16cf8a0919b426f48b4c76
Подписка на обновления:

Еще никто не оставлял запись к записи скачать торрент Нарутару Narutaru: Mukuro Naru Hoshi Tama Taru Ko . Будь первым!

!Обратная связь