杰森·莫玛
(2016) HDRip When the Bough Breaks

Скачать через торрент [iPad] Охота на воров Den of Thieves бесплатно русская версия torrent активатор

Статистика раздачи
Размер:  2.4 GB   |    Зарегистрирован:  5 дней   |    .torrent скачан:  22 раза   |   
Раздают:  1  
   
загрузка...
 
Автор Сообщение

Galfimbul

avatar Galfimbul


Охота на воров / Den of Thieves
-

6.652 / 10 7.10 / 10
Год выпуска: 2018
Страна: США
Жанр: Боевик, триллер, драма, криминал, детектив
Продолжительность: 02:20:01

Перевод: Дублированный (iTunes)
Оригинальная аудиодорожка: Есть
Cубтитры: Английские
Режиссёр: Кристиан Гьюдгэст
Сценарий: Кристиан Гьюдгэст, Пол Шойринг
Продюсер: Орен Авив, Джейсон Бархидт, Джерард Батлер
Оператор: Терри Стэйси
Композитор: Клифф Мартинес
Художник: Кара Линдстрём, Элизабет Боллер, Терри Андерсон
Монтаж: David Cox, Джоэл Кокс, Nathan Godley
В ролях: Джерард Батлер, Пабло Шрайбер, О’Ши Джексон мл., Фифти Сент, Медоу Уильямс, Морис Комт, Брайан Ван Холт, Ивэн Джонс, Мо, Каиви Лайман

Сборы в США: $44 947 622
Сборы в мире: + $29 900 000 = $74 847 622
Сборы в России: $1 340 251

Мировая премьера: 18 января 2018
Премьера (РФ): 8 февраля 2018, «MEGOGO Distribution»

Описание: Большой Ник — начальник элитного подразделения полиции Лос-Анджелеса — ежедневно доказывает, что его команда более крутая, чем те, на кого они охотятся. Когда коп узнает, что легендарный и неуловимый вор планирует дерзкое ограбление Федерального резервного банка США, то он решает помешать этому любым способом. И играть по правилам он не привык.
Качество исходника: WEB-DL 1080p (NNMClub)
Качество: WEB-DLRip
Тип: SD (576p)
Контейнер: M4V
Видео: H.264, 1024x432, 2.40:1, 2 200 Kbps, 23.976 fps

Аудио 1: Русский/Дублированный (iTunes), AAC / 2.0 / 128 Kbps / 48.0 KHz
Аудио 2: Английский/Оригинальная дорожка , AAC / 2.0 / 128 Kbps / 48.0 KHz

Субтитры: Английские полные
Sort Name: Den of Thieves
XID: Apple:vendor_id:2017-916105
contentID: 1338032525
Copyright: © 2018 STX FINANCING, LLC. ALL RIGHTS RESERVED.
Screenwriters: Кристиан Гьюдгэст, Пол Шойринг
Producers: Орен Авив, Джейсон Бархидт, Джерард Батлер
Director: Кристиан Гьюдгэст
Cast: Джерард Батлер, Джордан Бриджес, Пабло Шрайбер, Ивэн Джонс, О`Ши Джексон мл., 50 Cent, Соня Балморес, Эрик Браден, Брайан Ван Холт, Морис Комт
Studio: STX Entertainment
Rating: 5
Long Description: Большой Ник — начальник элитного подразделения полиции Лос-Анджелеса — ежедневно доказывает, что его команда более крутая, чем те, на кого они охотятся. Когда коп узнает, что легендарный и неуловимый вор планирует дерзкое ограбление Федерального резервного банка США, то он решает помешать этому любым способом. И играть по правилам он не привык.
Description: Большой Ник — начальник элитного подразделения полиции Лос-Анджелеса — ежедневно доказывает, что его команда более крутая, чем те, на кого они охотятся.
Release Date: 2018-01-19T08:00:00Z
Genre: Action & Adventure
Artist: Christian Gudegast
Name: Den of Thieves
General
Complete name : /Users/imac/HandBrake/Den.of.Thieves.(SD).(pk).m4v
Format : MPEG-4
Codec ID : M4V
File size : 2.40 GiB
Duration : 2h 20mn
Overall bit rate mode : Variable
Overall bit rate : 2 456 Kbps
Movie name : Den of Thieves
Performer : Christian Gudegast
Director : Кристиан Гьюдгэст
Actor : Джерард Батлер / Джордан Бриджес / Пабло Шрайбер / Ивэн Джонс / О`Ши Джексон мл. / 50 Cent / Соня Балморес / Эрик Браден / Брайан Ван Холт / Морис Комт
Screenplay by : Кристиан Гьюдгэст / Пол Шойринг
Producer : Орен Авив / Джейсон Бархидт / Джерард Батлер
Production studio : STX Entertainment
Genre : Action & Adventure
ContentType : Short Film
Description : Большой Ник — начальник элитного подразделения полиции Лос-Анджелеса — ежедневно доказывает, что его команда более крутая, чем те, на кого они охотятся.
Recorded date : UTC 2018-01-19 08:00:00
Encoded date : UTC 2018-04-15 13:52:31
Tagged date : UTC 2018-04-15 13:53:15
Copyright : © 2018 STX FINANCING, LLC. ALL RIGHTS RESERVED.
Cover : Yes
Rating : None
Title/Sort : Den of Thieves
LongDescription : Большой Ник — начальник элитного подразделения полиции Лос-Анджелеса — ежедневно доказывает, что его команда более крутая, чем те, на кого они охотятся. Когда коп узнает, что легендарный и неуловимый вор планирует дерзкое ограбление Федерального резервного банка США, то он решает помешать этому любым способом. И играть по правилам он не привык.
AppleStoreCatalogID : 1338032525
Vendor : Apple:vendor_id:2017-916105
ContentRating : mpaa|R|400|

Video #1
ID : 1
Format : AVC
Format/Info : Advanced Video Codec
Format profile : [email protected]
Format settings, CABAC : Yes
Format settings, ReFrames : 9 frames
Codec ID : avc1
Codec ID/Info : Advanced Video Coding
Duration : 2h 20mn
Source duration : 2h 20mn
Bit rate : 2 200 Kbps
Width : 1 024 pixels
Height : 432 pixels
Display aspect ratio : 2.40:1
Frame rate mode : Variable
Frame rate : 23.976 fps
Minimum frame rate : 23.974 fps
Maximum frame rate : 23.981 fps
Color space : YUV
Chroma subsampling : 4:2:0
Bit depth : 8 bits
Scan type : Progressive
Bits/(Pixel*Frame) : 0.207
Stream size : 2.15 GiB (90%)
Source stream size : 2.15 GiB (90%)
Title : Main Program
Writing library : x264 core 155 r2893 b00bcaf
Encoding settings : cabac=1 / ref=9 / deblock=1:0:0 / analyse=0x3:0x113 / me=umh / subme=9 / psy=1 / psy_rd=1.00:0.00 / mixed_ref=1 / me_range=32 / chroma_me=1 / trellis=1 / 8x8dct=1 / cqm=0 / deadzone=21,11 / fast_pskip=1 / chroma_qp_offset=-2 / threads=13 / lookahead_threads=1 / sliced_threads=0 / nr=0 / decimate=1 / interlaced=0 / bluray_compat=0 / constrained_intra=0 / bframes=6 / b_pyramid=2 / b_adapt=2 / b_bias=0 / direct=1 / weightb=1 / open_gop=0 / weightp=2 / keyint=240 / keyint_min=24 / scenecut=40 / intra_refresh=0 / rc_lookahead=40 / rc=2pass / mbtree=1 / bitrate=2200 / ratetol=1.0 / qcomp=0.60 / qpmin=0 / qpmax=69 / qpstep=4 / cplxblur=20.0 / qblur=0.5 / ip_ratio=1.40 / aq=1:1.00
Language : English
Encoded date : UTC 2018-04-15 13:52:31
Tagged date : UTC 2018-04-15 13:52:38
Color range : Limited
Color primaries : BT.709
Transfer characteristics : BT.709
Matrix coefficients : BT.709

Video #2
ID : 6
Format : JPEG
Codec ID : jpeg
Duration : 2h 20mn
Bit rate mode : Variable
Bit rate : 666 bps
Width : 640 pixels
Height : 270 pixels
Display aspect ratio : 2.40:1
Frame rate mode : Variable
Frame rate : 0.002 fps
Minimum frame rate : 0.001 fps
Maximum frame rate : 0.003 fps
Color space : YUV
Chroma subsampling : 4:2:0
Bit depth : 8 bits
Compression mode : Lossy
Bits/(Pixel*Frame) : 1.927
Stream size : 529 KiB (0%)
Title : Chapter Images
Language : English
Encoded date : UTC 2018-04-15 13:52:46
Tagged date : UTC 2018-04-15 13:52:46

Audio #1
ID : 2
Format : AAC
Format/Info : Advanced Audio Codec
Format profile : LC
Codec ID : 40
Duration : 2h 20mn
Source duration : 2h 20mn
Bit rate mode : Variable
Bit rate : 125 Kbps
Maximum bit rate : 197 Kbps
Channel(s) : 2 channels
Channel positions : Front: L R
Sampling rate : 48.0 KHz
Compression mode : Lossy
Stream size : 125 MiB (5%)
Source stream size : 125 MiB (5%)
Title : Russian Stereo
Language : Russian
Encoded date : UTC 2018-04-15 13:52:31
Tagged date : UTC 2018-04-15 13:52:43

Audio #2
ID : 3
Format : AAC
Format/Info : Advanced Audio Codec
Format profile : LC
Codec ID : 40
Duration : 2h 20mn
Source duration : 2h 20mn
Bit rate mode : Variable
Bit rate : 123 Kbps
Maximum bit rate : 209 Kbps
Channel(s) : 2 channels
Channel positions : Front: L R
Sampling rate : 48.0 KHz
Compression mode : Lossy
Stream size : 123 MiB (5%)
Source stream size : 123 MiB (5%)
Title : English Stereo
Language : English
Encoded date : UTC 2018-04-15 13:52:31
Tagged date : UTC 2018-04-15 13:52:43

Text
ID : 4
Format : Timed Text
Muxing mode : sbtl
Codec ID : tx3g
Duration : 2h 13mn
Bit rate mode : Variable
Bit rate : 51 bps
Stream size : 49.6 KiB (0%)
Title : English full
Language : English
Encoded date : UTC 2018-04-15 13:52:32
Tagged date : UTC 2018-04-15 13:52:32

Menu #1
00:00:00.000 : 1
00:09:15.000 : 2
00:18:58.000 : 3
00:31:49.000 : 4
00:38:14.000 : 5
00:48:11.000 : 6
00:58:05.000 : 7
01:08:43.000 : 8
01:16:24.000 : 9
01:26:19.000 : 10
01:41:35.000 : 11
01:49:43.000 : 12
02:08:22.000 : 13

Menu #2
ID : 5
Codec ID : text
Duration : 2h 20mn
Language : English
Encoded date : UTC 2018-04-15 13:52:43
Tagged date : UTC 2018-04-15 13:52:43
00:00:00.000 : 1
00:09:15.000 : 2
00:18:58.000 : 3
00:31:49.000 : 4
00:38:14.000 : 5
00:48:11.000 : 6
00:58:05.000 : 7
01:08:43.000 : 8
01:16:24.000 : 9
01:26:19.000 : 10
01:41:35.000 : 11
01:49:43.000 : 12
02:08:22.000 : 13
Bit rate mode : VBR
x264 [info]: frame I:2116  Avg QP:13.34  size: 82559
x264 [info]: frame P:49504 Avg QP:16.14  size: 23145
x264 [info]: frame B:149804 Avg QP:18.42  size:  6603
x264 [info]: consecutive B-frames:  2.6%  4.8%  7.9% 41.6% 15.3% 23.2%  4.6%
x264 [info]: mb I  I16..4:  8.1% 69.1% 22.7%
x264 [info]: mb P  I16..4:  1.4%  8.1%  2.3%  P16..4: 34.4% 29.5% 17.7%  0.0%  0.0%    skip: 6.6%
x264 [info]: mb B  I16..4:  0.1%  0.7%  0.2%  B16..8: 42.4% 13.1%  3.7%  direct: 4.5%  skip:35.4%  L0:44.6% L1:45.0% BI:10.5%
x264 [info]: 8x8 transform intra:68.8% inter:66.5%
x264 [info]: coded y,uvDC,uvAC intra: 87.6% 87.5% 68.6% inter: 28.0% 26.4% 4.1%
x264 [info]: i16 v,h,dc,p: 30% 16%  9% 44%
x264 [info]: i8 v,h,dc,ddl,ddr,vr,hd,vl,hu: 10% 10%  6%  9% 14% 13% 14% 11% 13%
x264 [info]: i4 v,h,dc,ddl,ddr,vr,hd,vl,hu: 11% 10%  3%  9% 15% 14% 14% 11% 13%
x264 [info]: i8c dc,h,v,p: 42% 24% 19% 15%
x264 [info]: Weighted P-Frames: Y:1.5% UV:0.6%
x264 [info]: ref P L0: 52.5% 10.1% 16.4%  6.4%  4.8%  3.3%  2.9%  1.7%  1.8%  0.1%  0.0%
x264 [info]: ref B L0: 76.2% 11.4%  5.3%  2.6%  1.8%  1.4%  0.9%  0.4%
x264 [info]: ref B L1: 94.9%  5.1%
x264 [info]: kb/s:2199.42

Релиз подготовлен для просмотра на Apple TV, iPad, iPhone, iPod Touch.
Для просмотра данного релиза на компьютере с ОС Windows рекомендуется использовать VLC media player

Трекер:  [ 15-Апр-2018 17:36 ]

  

Скачать .torrent

Размер .torrent файла 24 KB


Размер: 2.4 GB
Хэш (hash) релиза: 17833737e84831d2bdf071d918c3dfbb5af4e977

Еще никто не оставлял запись к записи скачать торрент [iPad] Охота на воров Den of Thieves . Будь первым!

!Обратная связь