La clessidra alimentare | Wrong Swipe 2016 | Download

Скачать через торрент МакГайвер MacGyver Фильм бесплатно в хорошем качестве torrent

Скачивайте на UnionPeer.org фильмы через торрент без регистрации. Новинки кино в хорошем качестве через торрент. На UnionPeer.org можно скачать через торрент фильмы 2014 и 2015 годов. Самые новые фильмы.

Скачать торрент МакГайвер MacGyver бесплатно через .torrent фильм мультфильм сериал

Статистика раздачи
Размер:  10.82 GB   |    Зарегистрирован:  2 месяца 17 дней   |    .torrent скачан:  69 раз   |   
Раздают:  1  
   
загрузка...
 
Автор Сообщение

Galfimbul

avatar Galfimbul


МакГайвер / MacGyver
«No man has done more with less»
Страна: США
Год выпуска: 2017
Жанр: боевик, драма, приключения
Продолжительность: ~ 00:43:00 серия
Перевод: Дублированный (телеканал Че)
Премьера (мир): 23 сентября 2016, ...
Премьера (РФ): 17 марта 2018
Режиссер: Стивен Херек, Бобби Рот, Эриксон Кор
В главных ролях: Джордж Идс, Джастин Хайрс, Сандрин Холт, Тристин Мейс, Лукас Тилл, Айна Думлао, Рой Култер и др.
Описание фильма:
История молодого человека лет двадцати, Ангуса «Мака» МакГайвера, который создает тайную организацию внутри правительства США, где он использует свой исключительный талант в решении неординарных проблем и обширные научные знания, чтобы спасать жизни. Следовать за ним в его рискованных миссиях по всему свету будет независимый бывших агент ЦРУ Джек Далтон. Под эгидой Департамента Внешних Дел МакГайвер берется за спасение мира, вооружившись до зубов лишь смекалкой, жвачкой и скрепкой

Качество видео: WEBRip
Формат: AC-3
Видео: Xvid, 720x400 (16:9), ~2000 kbps, 23.976 fps, 0.29 Bits/Pixel
Аудио Rus: AC-3, 48,0 kHz, 2 ch, 192 kbps |телеканал Че|
Аудио Eng: AC-3, 48,0 kHz, 2 ch, 192 kbps |Original|

Субтитры: английские
Реклама: Отсутствует
Релиз:
работа со звуком: serial_M
запись звука: Beer kolesik Drinkers

ОбщееПолное имя : E:\_Сериалы\_Сериалы\МакГайвер\MacGyver.S02.WEBRip.Rus.Eng.Casstudio\MacGyver.S02E01.WEBRip.Rus.Eng.Casstudio.aviФормат : AVIФормат/Информация : Audio Video InterleaveРазмер файла : 744 МбайтПродолжительность : 43 м. 18 с.Общий поток : 2401 Кбит/секПрограмма кодирования : VirtualDubMod 1.5.10.3 | www.virtualdub-fr.org || (build 2550/release)Библиотека кодирования : VirtualDubMod build 2550/release

ВидеоИдентификатор : 0Формат : MPEG-4 VisualПрофиль формата : Advanced [email protected]Настройки формата : BVOP1Параметр BVOP формата : 1Параметр QPel формата : НетПараметр GMC формата : Без точки переходаПараметр матрицы формата : Default (MPEG)Идентификатор кодека : XVIDИдентификатор кодека/Подсказка : XviDПродолжительность : 43 м. 18 с.Битрейт : 2002 Кбит/секШирина : 720 пикселейВысота : 400 пикселейСоотношение сторон : 16:9Частота кадров : 23,976 (24000/1001) кадра/секЦветовое пространство : YUVСубдискретизация насыщенности : 4:2:0Битовая глубина : 8 битТип развёртки : ПрогрессивнаяМетод сжатия : С потерямиБит/(Пиксели*Кадры) : 0.290Размер потока : 620 Мбайт (83%)Библиотека кодирования : XviD 1.2.1 (UTC 2008-12-04)

Аудио #1Идентификатор : 1Формат : AC-3Формат/Информация : Audio Coding 3Идентификатор кодека : 2000Продолжительность : 43 м. 18 с.Вид битрейта : ПостоянныйБитрейт : 192 Кбит/секКаналы : 2 каналаРасположение каналов : Front: L RЧастота : 48,0 КГцЧастота кадров : 31,250 кадров/сек (1536 SPF)Битовая глубина : 16 битМетод сжатия : С потерямиРазмер потока : 59,5 Мбайт (8%)Выравнивание : Разделение по промежуткамПродолжительность промежутка : 42 мс. (1,00 видеокадр)Время предзагрузки промежутка : 500 мс.ServiceKind/String : Complete Main

Аудио #2Идентификатор : 2Формат : AC-3Формат/Информация : Audio Coding 3Идентификатор кодека : 2000Продолжительность : 43 м. 18 с.Вид битрейта : ПостоянныйБитрейт : 192 Кбит/секКаналы : 2 каналаРасположение каналов : Front: L RЧастота : 48,0 КГцЧастота кадров : 31,250 кадров/сек (1536 SPF)Битовая глубина : 16 битМетод сжатия : С потерямиРазмер потока : 59,5 Мбайт (8%)Выравнивание : Разделение по промежуткамПродолжительность промежутка : 42 мс. (1,00 видеокадр)Время предзагрузки промежутка : 500 мс.ServiceKind/String : Complete Main


Раздача ведётся путём добавления новых серий; при каждом добавлении создаётся новый торрент.
Чтобы начать докачку новой серии, пользователям необходимо сделать следующее:
1. остановить скачивание,
2. удалить старый торрент у себя из клиента (старые серии удалять не надо),
3. скачать новый торрент и запустить его у себя в клиенте вместо старого, при этом указать клиенту путь в старую папку, куда и должно происходить скачивание новых серий.

Ваш клиент при этом должен произвести хеширование (проверку) старой папки (если не производит сам - помогите ему сделать это), и будет докачивать только те серии которых у вас ещё нет. Старые серии при этом не удаляются, а продолжают раздаваться!

Eсли вы уже удалили старые серии, то предотвратить повторную закачку старых серий можно, отжав галочку в соответствующих местах при запуске нового торрента. По возможности, желательно не удалять старые серии как можно дольше, чтобы релизёр не столько продолжал раздавать старые серии, а смог сконцентрироваться на новых.

Совет для тех, кто не хочет ждать перехеширования:
Создайте ещё одну папку рядом с папкой сериала (рядом, а не в ней!!!). Каждую новую серию после удачной загрузки копируйте в новую папку так чтобы ваша основная папка всегда была пуста. Когда ваш новый торрент предложит вам закачать все файлы, выберете только последнюю. Для сидирования же укажите адрес новой папки.

Как закачать отдельный файл из торрента или докачать ранее пропущенные файлы торрента!

1. Открыть торрент
2. Снять галки с тех файлов торрента, которые мы не хотим закачивать. Оставляем только на нужных нам файлах (файле).
3. Нажать О.К.

В клиенте utorrent

Инструкция

1) Открыть торрент


2) Снять галки с тех файлов торрента, которые мы не хотим закачивать:

* либо вручную, снимая с каждого файла галку( скрин №1)
* либо, нажав кнопку "Снять метки (Select None)", сняв сразу со всех файлов(скрин №2)
№1
№2
Оставляем только на нужных нам файлах (файле).
3)Нажать О.К

Приятного просмотра!!!

Трекер:  [ 29-Апр-2018 11:39 ]

  

Скачать .torrent

Размер .torrent файла 57 KB


Размер: 10.82 GB
Хэш (hash) релиза: a31d43e9a97746f5e441f2fbbed0dce44b5f48ae
Подписка на обновления:

bot

Раздача обновлена!
Перекачайте торрент-файл.

bot

Раздача обновлена!
Перекачайте торрент-файл.

bot

Раздача обновлена!
Перекачайте торрент-файл.

Хотите добавить комментарий к записи скачать торрент МакГайвер MacGyver

!Обратная связь