Float - Pulang
Naruto the Movie 2: Legend of the Stone of Gelel

Скачать через торрент Погружение Submergence бесплатно русская версия torrent активатор

Статистика раздачи
Размер:  3.43 GB   |    Зарегистрирован:  6 дней   |    .torrent скачан:  19 раз   |   
Раздают:  1  
   
загрузка...
 
Автор Сообщение

Galfimbul

avatar Galfimbul


Погружение / Submergence
«Любовь освобождает»

6.276 / 10 5.80 / 10
Год выпуска: 2017
Страна: Германия, Франция, Испания, США
Жанр: Триллер, драма, мелодрама
Продолжительность: 01:46:43

Перевод: Дублированный (iTunes)
Оригинальная аудиодорожка: Нет
Cубтитры: Нет
Режиссёр: Вим Вендерс
Сценарий: Эрин Дигнам, Дж.М. Ледгард
Продюсер: Жан-Баптист Бабин, Эндрю Бэнкс, Роберт Огден Барнум
Оператор: Бенуа Деби
Композитор: Фернандо Веласкес
Художник: Тьерри Фламан, Виржини Эрнванн, Флориан Мюллер
Монтаж: Тони Фрошхаммер
В ролях: Джеймс МакЭвой, Алисия Викандер, Александр Сиддиг, Селин Джонс, Реда Катеб, Мохамед Хакимшади, Клементин Баэрт, Адама Барри, Жюльен Буаниш, Лоик Корбери

Бюджет: $15 000 000
Сборы в России: $167 316

Мировая премьера: 10 сентября 2017
Премьера (РФ): 1 марта 2018, «Парадиз»

Описание: Он — офицер разведки, она — ученый-океанолог. Ему предстояла смертельно опасная спецоперация в Сомали, ей — глубоководная экспедиция. И теперь, в минуту испытаний пред лицом смерти — в плену у боевиков, в батискафе на глубине океана — все, что у них есть, — это их любовь…
Качество исходника: WEB-DL 720p (NNMClub)
Качество: WEB-DL
Тип: HD (720p)
Контейнер: M4V
Видео: H.264, [email protected], 1.85:1, 4 056 Kbps, 25.000 fps

Аудио 1: Русский/Дублированный (iTunes), AAC / 2.0 / 160 Kbps / 48.0 KHz
Аудио 2: Русский/Дублированный (iTunes), AC-3 / 5.1 / 384 Kbps / 48.0 KHz
Sort Name: Submergence
XID: Apple:vendor_id:2017-943779
contentID: 1354785182
Copyright: © 2017 Backup Studio, Neue Road Movies, Morena Films and Submergence AIE. All Rights Reserved.
Screenwriters: Эрин Дигнам, Дж.М. Ледгард
Producers: Жан-Баптист Бабин, Эндрю Бэнкс, Роберт Огден Барнум
Director: Вим Вендерс
Cast: Джеймс МакЭвой, Алисия Викандер, Александр Сиддиг, Селин Джонс, Реда Катеб, Мохамед Хакимшади, Клементин Баэрт, Адама Барри, Жюльен Буаниш, Лоик Корбери
Studio: Backup Films; Morena Films; Neue Road Movies
Rating: 1
Long Description: Он — офицер разведки, она — ученый-океанолог. Ему предстояла смертельно опасная спецоперация в Сомали, ей — глубоководная экспедиция. И теперь, в минуту испытаний пред лицом смерти — в плену у боевиков, в батискафе на глубине океана — все, что у них есть, — это их любовь…
Description: Он — офицер разведки, она — ученый-океанолог. Ему предстояла смертельно опасная спецоперация в Сомали, ей — глубоководная экспедиция.
Release Date: 2018-04-13T07:00:00Z
Genre: Thriller
Artist: Wim Wenders
Name: Submergence
General
Complete name : /Users/imac/HandBrake/Submergence.WEB-DL.720p.m4v
Format : MPEG-4
Codec ID : M4V
File size : 3.43 GiB
Duration : 1h 46mn
Overall bit rate mode : Variable
Overall bit rate : 4 599 Kbps
Movie name : Submergence
Performer : Wim Wenders
Director : Вим Вендерс
Actor : Джеймс МакЭвой / Алисия Викандер / Александр Сиддиг / Селин Джонс / Реда Катеб / Мохамед Хакимшади / Клементин Баэрт / Адама Барри / Жюльен Буаниш / Лоик Корбери
Screenplay by : Эрин Дигнам / Дж.М. Ледгард
Producer : Жан-Баптист Бабин / Эндрю Бэнкс / Роберт Огден Барнум
Production studio : Backup Films; Morena Films; Neue Road Movies
Genre : Thriller
ContentType : Short Film
Description : Он — офицер разведки, она — ученый-океанолог. Ему предстояла смертельно опасная спецоперация в Сомали, ей — глубоководная экспедиция.
Recorded date : UTC 2018-04-13 07:00:00
Encoded date : UTC 2018-04-15 11:05:29
Tagged date : UTC 2018-04-15 11:07:44
Copyright : © 2017 Backup Studio, Neue Road Movies, Morena Films and Submergence AIE. All Rights Reserved.
Cover : Yes
Rating : None
Title/Sort : Submergence
LongDescription : Он — офицер разведки, она — ученый-океанолог. Ему предстояла смертельно опасная спецоперация в Сомали, ей — глубоководная экспедиция. И теперь, в минуту испытаний пред лицом смерти — в плену у боевиков, в батискафе на глубине океана — все, что у них есть, — это их любовь…
HDVideo : Yes
AppleStoreCatalogID : 1354785182
Vendor : Apple:vendor_id:2017-943779
ContentRating : mpaa|NR|000|

Video #1
ID : 1
Format : AVC
Format/Info : Advanced Video Codec
Format profile : [email protected]
Format settings, CABAC : No
Format settings, ReFrames : 2 frames
Codec ID : avc1
Codec ID/Info : Advanced Video Coding
Duration : 1h 46mn
Bit rate : 4 056 Kbps
Width : 960 pixels
Height : 692 pixels
Display aspect ratio : 1.85:1
Frame rate mode : Constant
Frame rate : 25.000 fps
Color space : YUV
Chroma subsampling : 4:2:0
Bit depth : 8 bits
Scan type : Progressive
Bits/(Pixel*Frame) : 0.244
Stream size : 3.02 GiB (88%)
Title : Main Program
Language : English
Encoded date : UTC 2018-04-15 11:05:29
Tagged date : UTC 2018-04-15 11:07:00
Color range : Limited
Color primaries : BT.709
Transfer characteristics : BT.709
Matrix coefficients : BT.709

Video #2
ID : 5
Format : JPEG
Codec ID : jpeg
Duration : 1h 46mn
Bit rate mode : Variable
Bit rate : 1 146 bps
Width : 640 pixels
Height : 346 pixels
Display aspect ratio : 1.85:1
Frame rate mode : Variable
Frame rate : 0.003 fps
Minimum frame rate : 0.002 fps
Maximum frame rate : 0.004 fps
Color space : YUV
Chroma subsampling : 4:2:0
Bit depth : 8 bits
Compression mode : Lossy
Bits/(Pixel*Frame) : 1.725
Stream size : 793 KiB (0%)
Title : Chapter Images
Language : English
Encoded date : UTC 2018-04-15 11:07:04
Tagged date : UTC 2018-04-15 11:07:05

Audio #1
ID : 2
Format : AAC
Format/Info : Advanced Audio Codec
Format profile : LC
Codec ID : 40
Duration : 1h 46mn
Source duration : 1h 46mn
Bit rate mode : Variable
Bit rate : 153 Kbps
Maximum bit rate : 224 Kbps
Channel(s) : 2 channels
Channel positions : Front: L R
Sampling rate : 48.0 KHz
Compression mode : Lossy
Stream size : 117 MiB (3%)
Source stream size : 117 MiB (3%)
Title : Russian Stereo
Language : Russian
Encoded date : UTC 2018-04-15 11:05:29
Tagged date : UTC 2018-04-15 11:05:48

Audio #2
ID : 3
Format : AC-3
Format/Info : Audio Coding 3
Mode extension : CM (complete main)
Format settings, Endianness : Big
Codec ID : ac-3
Duration : 1h 46mn
Bit rate mode : Constant
Bit rate : 384 Kbps
Channel(s) : 6 channels
Channel positions : Front: L C R, Side: L R, LFE
Sampling rate : 48.0 KHz
Bit depth : 16 bits
Compression mode : Lossy
Stream size : 293 MiB (8%)
Title : Russian DD 5.1
Language : Russian
Encoded date : UTC 2018-04-15 11:05:29
Tagged date : UTC 2018-04-15 11:05:48

Menu #1
00:00:00.000 : 1
00:05:51.400 : 2
00:13:00.240 : 3
00:18:05.920 : 4
00:25:05.519 : 5
00:30:35.679 : 6
00:37:59.477 : 7
00:45:36.597 : 8
00:53:04.517 : 9
00:57:17.156 : 10
01:03:15.636 : 11
01:10:00.116 : 12
01:16:19.756 : 13
01:22:11.556 : 14
01:28:08.436 : 15
01:32:53.356 : 16
01:39:04.156 : 17

Menu #2
ID : 4
Codec ID : text
Duration : 1h 46mn
Language : English
Encoded date : UTC 2018-04-15 11:07:00
Tagged date : UTC 2018-04-15 11:07:00
00:00:00.000 : 1
00:05:51.400 : 2
00:13:00.240 : 3
00:18:05.920 : 4
00:25:05.519 : 5
00:30:35.679 : 6
00:37:59.477 : 7
00:45:36.597 : 8
00:53:04.517 : 9
00:57:17.156 : 10
01:03:15.636 : 11
01:10:00.116 : 12
01:16:19.756 : 13
01:22:11.556 : 14
01:28:08.436 : 15
01:32:53.356 : 16
01:39:04.156 : 17
Bit rate mode : VBR

Релиз подготовлен для просмотра на Apple TV, iPad, iPhone, iPod Touch.
Для просмотра данного релиза на компьютере с ОС Windows рекомендуется использовать VLC media player

Трекер:  [ 15-Апр-2018 14:36 ]

  

Скачать .torrent

Размер .torrent файла 34 KB


Размер: 3.43 GB
Хэш (hash) релиза: 0f6107a03ccbd16af7c8114355f8d46af1c11a9f

Еще никто не оставлял запись к записи скачать торрент Погружение Submergence . Будь первым!

!Обратная связь