The Girlfriend Experience | SC-1739 Cameron & Tanner (Bareback) - 720p.mp4 | Moana (2016)

Скачать через торрент Новенькая New Girl Фильм бесплатно в хорошем качестве torrent

Скачивайте на UnionPeer.org фильмы через торрент без регистрации. Новинки кино в хорошем качестве через торрент. На UnionPeer.org можно скачать через торрент фильмы 2014 и 2015 годов. Самые новые фильмы.

Скачать торрент Новенькая New Girl бесплатно через .torrent фильм мультфильм сериал

Статистика раздачи
Размер:  4.44 GB   |    Зарегистрирован:  1 месяц 14 дней   |    .torrent скачан:  80 раз   |   
Раздают:  1  
   
загрузка...
 
Автор Сообщение

Galfimbul

avatar Galfimbul


Новенькая / New Girl
Год выпуска: 2018
Страна: США
Жанр: комедия
Продолжительность: 00:21:00
Перевод:

Профессиональный многоголосый закадровый (KANSAI)

Субтитры: Отсутствуют
Режиссер: Джейк Кэздан
В ролях: Зои Дешанель, Дэймон Уайанс мл., Джэйк М. Джонсон, Джиллиан Вигмэн, Ханна Симона, Макс Гринфилд, Мэри Элизабет Эллис, Стив Баннос, Хейли Норман, Джек Янг и др

| Сэмпл
Описание: Комедия о сексуальных отношениях мужчин и женщин. В центре сюжета — Джессика, оптимистичная, но несчастная в любви учительница начальной школы, которая после последнего разрыва въезжает в квартиру, где уже живут три парня.

Качество: HDTVRip 720p
Формат: MKV
Видео кодек: H.264
Аудио кодек: AC3
Видео: AVC, 1280x718 (16:9), 3093 kbps, 23,976 fps, 0,140 bpp
Аудио#1: русский / AC3 / 2.0 / 48 kHz / 192 kbps
Аудио#2: английский / AC3 / 5.1 / 48 kHz / 384 kbps
General
Unique ID : 217696968816895819684365717109948052917 (0xA3C6E93E28013FA181368C3BF2CC75B5)
Complete name : G:_kansaitorNew.Girl.S07.720p.HDTV-KANSAINew.Girl.S07E01.720p.HDTV-KANSAI.mkv
Format : Matroska
Format version : Version 4 / Version 2
File size : 578 MiB
Duration : 21 min 35 s
Overall bit rate : 3 744 kb/s
Encoded date : UTC 2018-04-14 19:36:36
Writing application : mkvmerge v6.7.0 ('Back to the Ground') 64bit built on Jan 8 2014 15:10:52
Writing library : libebml v1.3.0 + libmatroska v1.4.1

Video
ID : 1
Format : AVC
Format/Info : Advanced Video Codec
Format profile : [email protected]
Format settings : CABAC / 5 Ref Frames
Format settings, CABAC : Yes
Format settings, RefFrames : 5 frames
Codec ID : V_MPEG4/ISO/AVC
Duration : 21 min 35 s
Bit rate : 3 093 kb/s
Width : 1 280 pixels
Height : 718 pixels
Display aspect ratio : 16:9
Frame rate mode : Constant
Frame rate : 23.976 (24000/1001) FPS
Color space : YUV
Chroma subsampling : 4:2:0
Bit depth : 8 bits
Scan type : Progressive
Bits/(Pixel*Frame) : 0.140
Stream size : 478 MiB (83%)
Writing library : x264 core 155 r2901 7d0ff22
Encoding settings : cabac=1 / ref=5 / deblock=1:0:0 / analyse=0x3:0x113 / me=hex / subme=8 / psy=1 / psy_rd=1.00:0.00 / mixed_ref=1 / me_range=16 / chroma_me=1 / trellis=2 / 8x8dct=1 / cqm=0 / deadzone=21,11 / fast_pskip=1 / chroma_qp_offset=-2 / threads=22 / lookahead_threads=3 / sliced_threads=0 / nr=0 / decimate=1 / interlaced=0 / bluray_compat=0 / constrained_intra=0 / bframes=3 / b_pyramid=2 / b_adapt=1 / b_bias=0 / direct=3 / weightb=1 / open_gop=0 / weightp=2 / keyint=250 / keyint_min=23 / scenecut=40 / intra_refresh=0 / rc_lookahead=50 / rc=crf / mbtree=1 / crf=18.0 / qcomp=0.60 / qpmin=0 / qpmax=69 / qpstep=4 / ip_ratio=1.40 / aq=1:1.00
Default : Yes
Forced : No
Color range : Limited
Matrix coefficients : BT.709

Audio #1
ID : 2
Format : AC-3
Format/Info : Audio Coding 3
Codec ID : A_AC3
Duration : 21 min 35 s
Bit rate mode : Constant
Bit rate : 192 kb/s
Channel(s) : 2 channels
Channel positions : Front: L R
Sampling rate : 48.0 kHz
Frame rate : 31.250 FPS (1536 SPF)
Bit depth : 16 bits
Compression mode : Lossy
Stream size : 29.7 MiB (5%)
Title : KANSAI Studio
Language : Russian
Service kind : Complete Main
Default : Yes
Forced : No

Audio #2
ID : 3
Format : AC-3
Format/Info : Audio Coding 3
Codec ID : A_AC3
Duration : 21 min 35 s
Bit rate mode : Constant
Bit rate : 384 kb/s
Channel(s) : 6 channels
Channel positions : Front: L C R, Side: L R, LFE
Sampling rate : 48.0 kHz
Frame rate : 31.250 FPS (1536 SPF)
Bit depth : 16 bits
Compression mode : Lossy
Stream size : 59.3 MiB (10%)
Language : English
Service kind : Complete Main
Default : No
Forced : No



Трекер:  [ 02-Июн-2018 11:23 ]

  

Скачать .torrent

Размер .torrent файла 45 KB


Размер: 4.44 GB
Хэш (hash) релиза: 598c953e9185be909f0e3f9958f1ddd8fb3bfd61
Подписка на обновления:

bot

Раздача обновлена!
Перекачайте торрент-файл.

bot

Раздача обновлена!
Перекачайте торрент-файл.

bot

Раздача обновлена!
Перекачайте торрент-файл.

bot

Раздача обновлена!
Перекачайте торрент-файл.

bot

Раздача обновлена!
Перекачайте торрент-файл.

Хотите добавить комментарий к записи скачать торрент Новенькая New Girl

!Обратная связь