Sustainable marketing - 616 Words
Robbie4Ever - Trance Kingdom 125, C-Dance.com - 30-Apr-2013

Скачать через торрент Лемони Сникет: 33 несчастья Lemony Snickets A Series of Unfortunate Events Фильм бесплатно в хорошем качестве torrent

Скачивайте на UnionPeer.org фильмы через торрент без регистрации. Новинки кино в хорошем качестве через торрент. На UnionPeer.org можно скачать через торрент фильмы 2014 и 2015 годов. Самые новые фильмы.

Скачать торрент Лемони Сникет: 33 несчастья Lemony Snickets A Series of Unfortunate Events бесплатно через .torrent фильм мультфильм сериал

Статистика раздачи
Размер:  16.6 GB   |    Зарегистрирован:  8 дней   |    .torrent скачан:  44 раза   |   
Раздают:  1  
   
загрузка...
 
Автор Сообщение

Galfimbul

avatar Galfimbul




Лемони Сникет: 33 несчастья | A Series of Unfortunate Events

• Год выпуска: 2018
• Страна: США
• Жанр: Драма, приключения, семейный
• Продолжительность: ~ 00:43:00
• Перевод: Профессиональный (многоголосый закадровый) | Good People
• Режиссёр: Бэрри Зонненфельд, Марк Палански, Бо Уэлш
• В ролях: Нил Патрик Харрис, Усман Элли, Мэттью Кардаропле, Джон ДеСантис, Луи Хайнс, Малина Вайсман, Сара Каннинг, Патрик Китинг, Кэтрин О’Хара, Элфри Вудард и др.
• Описание: В центре внимания сериала - большая семья, которая пытается прийти в себя после страшного пожара, который разрушил их дом. Семейство Бодлер остается на улице. Дети Вайолет, Солнышко и Клаус потеряли своих родителей в этой бушующей стихии. Ребята отправляются к графу Олафу на попечение. Тот принимает детей, но при этом очень хочет захватить в свои владения все то, что ранее им принадлежало! Дети же всячески пытаются найти тех, кто их защитит, считая, что Олаф не просто их опекун, а настоящий тиран, который мечтает о смерти ребят. Конечно же, детей никто не слушает. Однако все же находятся те, кто готов помочь!

| Ссылка на предыдущие и альтернативные раздачи |
• Качество: WEBRip 1080p
• Формат: MKV
• Видео: x264, ~ 3500 kbps | 1920x960 (2,000), 24 fps
• Аудио #1: AC3 | 48.0 KHz | 6 ch | 384 kbps - Rus
• Аудио #2: AC3 | 48.0 KHz | 6 ch | 384 kbps - Rus - песни озвучены закадровым текстом
• Аудио #3: AC3 | 48.0 KHz | 6 ch | 384 kbps - Eng
• Субтитры: Русские (на песни) | английские |
• Реклама: Присутствует звуковая (два раза в начале и конце по 12 сек.)
Общее
Уникальный идентификатор                 : 233946686187808392241318567315238185249 (0xB0007E2A3BAE48E4AB7A1223A7F66921)
Полное имя                               : E:\GoodPeople\A Series of Unfortunate Events. Season 2 (WEBRip l 1080p l Good People)\A.Series.of.Unfortunate.Events.S02E01.1080p.WEBRip.DD5.1.x264-GoodPeople.mkv
Формат                                   : Matroska
Версия формата                           : Version 2
Размер файла                             : 1,46 Гбайт
Продолжительность                        : 46 м. 24 с.
Общий поток                              : 4489 Кбит/сек
Дата кодирования                         : UTC 2018-04-14 18:37:51
Программа кодирования                    : mkvmerge v7.8.0 ('River Man') 32bit built on Apr  3 2015 12:11:22
Библиотека кодирования                   : libebml v1.3.1 + libmatroska v1.4.2

Видео
Идентификатор                            : 1
Формат                                   : AVC
Формат/Информация                        : Advanced Video Codec
Профиль формата                          : [email protected]
Настройки формата                        : CABAC / 4 Ref Frames
Параметр CABAC формата                   : Да
Параметр RefFrames формата               : 4 кадра
Идентификатор кодека                     : V_MPEG4/ISO/AVC
Продолжительность                        : 46 м. 24 с.
Битрейт                                  : 3248 Кбит/сек
Ширина                                   : 1920 пикселей
Высота                                   : 960 пикселей
Соотношение сторон                       : 2,000
Режим частоты кадров                     : Постоянный
Частота кадров                           : 24,000 кадра/сек
Цветовое пространство                    : YUV
Субдискретизация насыщенности            : 4:2:0
Битовая глубина                          : 8 бит
Тип развёртки                            : Прогрессивная
Бит/(Пиксели*Кадры)                      : 0.073
Размер потока                            : 1,05 Гбайт (72%)
Библиотека кодирования                   : x264 core 155 r2901 7d0ff22
Настройки программы                      : cabac=1 / ref=4 / deblock=1:-3:-3 / analyse=0x3:0x133 / me=umh / subme=11 / psy=1 / psy_rd=1.05:0.15 / mixed_ref=1 / me_range=48 / chroma_me=1 / trellis=2 / 8x8dct=1 / cqm=0 / deadzone=6,6 / fast_pskip=0 / chroma_qp_offset=-3 / threads=30 / lookahead_threads=7 / sliced_threads=0 / nr=0 / decimate=0 / interlaced=0 / bluray_compat=0 / constrained_intra=0 / bframes=10 / b_pyramid=2 / b_adapt=2 / b_bias=0 / direct=3 / weightb=1 / open_gop=0 / weightp=2 / keyint=240 / keyint_min=24 / scenecut=40 / intra_refresh=0 / rc_lookahead=60 / rc=crf / mbtree=1 / crf=17.0 / qcomp=0.70 / qpmin=0 / qpmax=69 / qpstep=4 / ip_ratio=1.10 / aq=3:0.70
Язык                                     : English
Default                                  : Да
Forced                                   : Нет

Аудио #1
Идентификатор                            : 2
Формат                                   : AC-3
Формат/Информация                        : Audio Coding 3
Идентификатор кодека                     : A_AC3
Продолжительность                        : 46 м. 24 с.
Вид битрейта                             : Постоянный
Битрейт                                  : 384 Кбит/сек
Каналы                                   : 6 каналов
Расположение каналов                     : Front: L C R, Side: L R, LFE
Частота                                  : 48,0 КГц
Частота кадров                           : 31,250 кадров/сек (1536 SPF)
Битовая глубина                          : 16 бит
Метод сжатия                             : С потерями
Размер потока                            : 127 Мбайт (9%)
Заголовок                                : v1
Язык                                     : Russian
ServiceKind/String                       : Complete Main
Default                                  : Да
Forced                                   : Нет

Аудио #2
Идентификатор                            : 3
Формат                                   : AC-3
Формат/Информация                        : Audio Coding 3
Идентификатор кодека                     : A_AC3
Продолжительность                        : 46 м. 24 с.
Вид битрейта                             : Постоянный
Битрейт                                  : 384 Кбит/сек
Каналы                                   : 6 каналов
Расположение каналов                     : Front: L C R, Side: L R, LFE
Частота                                  : 48,0 КГц
Частота кадров                           : 31,250 кадров/сек (1536 SPF)
Битовая глубина                          : 16 бит
Метод сжатия                             : С потерями
Размер потока                            : 127 Мбайт (9%)
Заголовок                                : v2
Язык                                     : Russian
ServiceKind/String                       : Complete Main
Default                                  : Нет
Forced                                   : Нет

Аудио #3
Идентификатор                            : 4
Формат                                   : AC-3
Формат/Информация                        : Audio Coding 3
Идентификатор кодека                     : A_AC3
Продолжительность                        : 46 м. 24 с.
Вид битрейта                             : Постоянный
Битрейт                                  : 384 Кбит/сек
Каналы                                   : 6 каналов
Расположение каналов                     : Front: L C R, Side: L R, LFE
Частота                                  : 48,0 КГц
Частота кадров                           : 31,250 кадров/сек (1536 SPF)
Битовая глубина                          : 16 бит
Метод сжатия                             : С потерями
Размер потока                            : 127 Мбайт (9%)
Язык                                     : English
ServiceKind/String                       : Complete Main
Default                                  : Нет
Forced                                   : Нет

Текст #1
Идентификатор                            : 5
Формат                                   : UTF-8
Идентификатор кодека                     : S_TEXT/UTF8
Идентификатор кодека/Информация          : UTF-8 Plain Text
Заголовок                                : Songs
Язык                                     : Russian
Default                                  : Нет
Forced                                   : Нет

Текст #2
Идентификатор                            : 6
Формат                                   : UTF-8
Идентификатор кодека                     : S_TEXT/UTF8
Идентификатор кодека/Информация          : UTF-8 Plain Text
Язык                                     : English
Default                                  : Нет
Forced                                   : Нет
Когда раздача ведётся путём добавления новых серий, при каждом добавлении создётся новый торрент. Чтобы начать докачку новой серии, пользователям необходимо сделать следующее:
(1) остановить скачивание,
(2) удалить старый торрент у себя из клиента (старые серии удалять не надо),
(3) скачать новый торрент и запустить его у себя в клиенте вместо старого, при этом указать клиенту путь в старую папку, куда и должно происходить скачивание новых серий.
Ваш клиент при этом должен произвести хеширование (проверку) старой папки (если не производит сам - помогите ему сделать это), и будет докачивать только те серии, которых у вас ещё нет. Старые серии при этом не удаляются, а продолжают раздаваться!
Eсли вы уже удалили старые серии, то предотвратить повторную закачку старых серий можно, отжав галочку в соответсвующих местах при запуске нового торрента. По возможности, желательно не удалять старые серии как можно дольше, чтобы релизёр не столько продолжал раздавать старые серии, а смог сконцентрироваться на новых.



Трекер:  [ 14-Апр-2018 22:48 ]

  

Скачать .torrent

Размер .torrent файла 84 KB


Размер: 16.6 GB
Хэш (hash) релиза: 847bef40c7a56f7cddbc3208f3d4537a6056bdb0
Подписка на обновления:

Торренты, похожие на Лемони Сникет: 33 несчастья Lemony Snickets A Series of Unfortunate Events скачать торрент

Форум Название Автор Размер S L Добавлен
Зарубежные сериалы ·· Лемони Сникет: 33 несчастья / Lemony Snicket's A Series of Unfortunate Events / Сезон: 2 / Серия: 1-10 из 10 (Бэрри Зонненфельд, Марк Палански, Бо Уэлш) [2018, США, Драма, приключения, семейный, WEBRip 720p] MVO (Good People) + Original Galfimbul 81493324117.59 GB 0 0 1523731710

21:48

14-Апр-18

Еще никто не оставлял запись к записи скачать торрент Лемони Сникет: 33 несчастья Lemony Snickets A Series of Unfortunate Events . Будь первым!

!Обратная связь