West.of.Hell.2018.UNCUT.BDRip.x264-GETiT | Der Sockengolf-Champion Big Flappy Bastards | Great Rail Restorations S01E01 480p x264-mSD 45 minutes

Скачать через торрент Лемони Сникет: 33 несчастья Lemony Snickets A Series of Unfortunate Events Фильм бесплатно в хорошем качестве torrent

Скачивайте на UnionPeer.org фильмы через торрент без регистрации. Новинки кино в хорошем качестве через торрент. На UnionPeer.org можно скачать через торрент фильмы 2014 и 2015 годов. Самые новые фильмы.

Скачать торрент Лемони Сникет: 33 несчастья Lemony Snickets A Series of Unfortunate Events бесплатно через .torrent фильм мультфильм сериал

Статистика раздачи
Размер:  7.59 GB   |    Зарегистрирован:  3 месяца 2 дня   |    .torrent скачан:  30 раз   |   
Раздают:  1  
   
загрузка...
 
Автор Сообщение

Galfimbul

avatar Galfimbul


Лемони Сникет: 33 несчастья / Lemony Snicket's A Series of Unfortunate Events

Оригинальное название: Lemony Snicket's A Series of Unfortunate Events
Русское название: Лемони Сникет: 33 несчастья
Год выпуска: 2018
Страна: США
Жанр: Драма, приключения, семейный
Продолжительность: ~45-59 мин.
Перевод: Профессиональный (многоголосый закадровый) Good People
Субтитры: Есть (на песни), английские
Режиссёр: Бэрри Зонненфельд, Марк Палански, Бо Уэлш
В ролях: Нил Патрик Харрис, Усман Элли, Мэттью Кардаропле, Джон ДеСантис, Луи Хайнс, Малина Вайсман, Сара Каннинг, Патрик Китинг, Кэтрин О’Хара, Элфри Вудард и другие
Описание: В центре внимания сериала - большая семья, которая пытается прийти в себя после страшного пожара, который разрушил их дом. Семейство Бодлер остается на улице. Дети Вайолет, Солнышко и Клаус потеряли своих родителей в этой бушующей стихии. Ребята отправляются к графу Олафу на попечение. Тот принимает детей, но при этом очень хочет захватить в свои владения все то, что ранее им принадлежало! Дети же всячески пытаются найти тех, кто их защитит, считая, что Олаф не просто их опекун, а настоящий тиран, который мечтает о смерти ребят. Конечно же, детей никто не слушает. Однако все же находятся те, кто готов помочь!
Сэмпл
Качество: WEBRip 720p
Формат: MKV
Видео кодек: AVC
Аудио кодек: AC3
Видео: 1280x720 (16:9), 24 fps, ~1500kbps, 0.044 bit/pixel
Аудио 1: Dolby AC3 48000Hz 5.1 384Kbps Русский (песни закадровым текстоме)
Аудио 2: Dolby AC3 48000Hz 5.1 384Kbps Русский (песни оригинальные)
Аудио 3: Dolby AC3 48000Hz 5.1 384Kbps Оригинал (Английский)
Реклама: Присутствует звуковая (два раза в начале и конце по 12 сек.)
General
Unique ID                   : 235195306626448359824826654350664909083 (0xB0F0F7E7D33EB925A3CF939617A9C11B)
Complete name               : A.Series.of.Unfortunate.Events.S02E01.The.Austere.Academy.P1.720p.WEBRip.DD5.1.x264-GoodPeople.mkv
Format                      : Matroska
Format version              : Version 2
File size                   : 723 MiB
Duration                    : 46mn 24s
Overall bit rate mode       : Variable
Overall bit rate            : 2 177 Kbps
Encoded date                : UTC 2018-04-14 17:02:04
Writing application         : mkvmerge v5.4.0 ('Piper') built on Mar 10 2012 13:34:39
Writing library             : libebml v1.2.3 + libmatroska v1.3.0

Video
ID                          : 1
Format                      : AVC
Format/Info                 : Advanced Video Codec
Format profile              : [email protected]
Format settings, CABAC      : Yes
Format settings, ReFrames   : 3 frames
Codec ID                    : V_MPEG4/ISO/AVC
Duration                    : 46mn 24s
Bit rate mode               : Variable
Bit rate                    : 982 Kbps
Nominal bit rate            : 1 050 Kbps
Maximum bit rate            : 1 575 Kbps
Width                       : 1 280 pixels
Height                      : 720 pixels
Display aspect ratio        : 16:9
Frame rate mode             : Constant
Frame rate                  : 24.000 fps
Color space                 : YUV
Chroma subsampling          : 4:2:0
Bit depth                   : 8 bits
Scan type                   : Progressive
Bits/(Pixel*Frame)          : 0.044
Stream size                 : 326 MiB (45%)
Writing library             : x264 core 148 r2715 7e75228
Encoding settings           : cabac=1 / ref=3 / deblock=1:0:0 / analyse=0x1:0x111 / me=umh / subme=10 / psy=1 / psy_rd=1.00:0.00 / mixed_ref=1 / me_range=24 / chroma_me=1 / trellis=2 / 8x8dct=0 / cqm=0 / deadzone=21,11 / fast_pskip=1 / chroma_qp_offset=-2 / threads=8 / lookahead_threads=1 / sliced_threads=0 / nr=0 / decimate=1 / interlaced=0 / bluray_compat=0 / stitchable=1 / constrained_intra=0 / bframes=2 / b_pyramid=0 / b_adapt=2 / b_bias=0 / direct=3 / weightb=1 / open_gop=0 / weightp=2 / keyint=48 / keyint_min=25 / scenecut=0 / intra_refresh=0 / rc_lookahead=48 / rc=2pass / mbtree=1 / bitrate=1050 / ratetol=1.0 / qcomp=0.50 / qpmin=6 / qpmax=51 / qpstep=4 / cplxblur=20.0 / qblur=0.5 / vbv_maxrate=1575 / vbv_bufsize=2100 / nal_hrd=vbr / filler=0 / ip_ratio=1.40 / aq=1:1.00
Default                     : Yes
Forced                      : No

Audio #1
ID                          : 2
Format                      : AC-3
Format/Info                 : Audio Coding 3
Mode extension              : CM (complete main)
Format settings, Endianness : Big
Codec ID                    : A_AC3
Duration                    : 46mn 24s
Bit rate mode               : Constant
Bit rate                    : 384 Kbps
Channel(s)                  : 6 channels
Channel positions           : Front: L C R, Side: L R, LFE
Sampling rate               : 48.0 KHz
Compression mode            : Lossy
Stream size                 : 127 MiB (18%)
Title                       : v1
Language                    : Russian
Default                     : Yes
Forced                      : No

Audio #2
ID                          : 3
Format                      : AC-3
Format/Info                 : Audio Coding 3
Mode extension              : CM (complete main)
Format settings, Endianness : Big
Codec ID                    : A_AC3
Duration                    : 46mn 24s
Bit rate mode               : Constant
Bit rate                    : 384 Kbps
Channel(s)                  : 6 channels
Channel positions           : Front: L C R, Side: L R, LFE
Sampling rate               : 48.0 KHz
Compression mode            : Lossy
Stream size                 : 127 MiB (18%)
Title                       : v2 (song text)
Language                    : Russian
Default                     : No
Forced                      : No

Audio #3
ID                          : 4
Format                      : AC-3
Format/Info                 : Audio Coding 3
Mode extension              : CM (complete main)
Format settings, Endianness : Big
Codec ID                    : A_AC3
Duration                    : 46mn 24s
Bit rate mode               : Constant
Bit rate                    : 384 Kbps
Channel(s)                  : 6 channels
Channel positions           : Front: L C R, Side: L R, LFE
Sampling rate               : 48.0 KHz
Compression mode            : Lossy
Stream size                 : 127 MiB (18%)
Language                    : English
Default                     : No
Forced                      : No

Text #1
ID                          : 5
Format                      : UTF-8
Codec ID                    : S_TEXT/UTF8
Codec ID/Info               : UTF-8 Plain Text
Title                       : Songs
Language                    : Russian
Default                     : No
Forced                      : No

Text #2
ID                          : 6
Format                      : UTF-8
Codec ID                    : S_TEXT/UTF8
Codec ID/Info               : UTF-8 Plain Text
Title                       : English
Language                    : English
Default                     : No
Forced                      : No


Трекер:  [ 14-Апр-2018 21:48 ]

  

Скачать .torrent

Размер .torrent файла 21 KB


Размер: 7.59 GB
Хэш (hash) релиза: 679b3e70dcac6169261e6889c430df5a2b761b5d
Подписка на обновления:

Торренты, похожие на Лемони Сникет: 33 несчастья Lemony Snickets A Series of Unfortunate Events скачать торрент

Форум Название Автор Размер S L Добавлен
Зарубежные сериалы ·· Лемони Сникет: 33 несчастья / Lemony Snicket's A Series of Unfortunate Events / Сезон: 2 / Серия: 1-10 из 10 (Бэрри Зонненфельд, Марк Палански, Бо Уэлш) [2018, США, Драма, приключения, семейный, WEBRip 1080p] MVO (Good People) + Original + Sub, Eng Galfimbul 1782843219416.6 GB 0 0 1523735302

22:48

14-Апр-18

Еще никто не оставлял запись к записи скачать торрент Лемони Сникет: 33 несчастья Lemony Snickets A Series of Unfortunate Events . Будь первым!

!Обратная связь